<?xml version="1.0" standalone="no"?>
<!DOCTYPE svg PUBLIC "-//W3C//DTD SVG 1.1//EN" "http://www.w3.org/Graphics/SVG/1.1/DTD/svg11.dtd" >
<svg xmlns="http://www.w3.org/2000/svg" xmlns:xlink="http://www.w3.org/1999/xlink" version="1.1">
<metadata></metadata>
<defs>
<font id="brush_scriptregular" horiz-adv-x="1146" >
<font-face units-per-em="2048" ascent="1638" descent="-410" />
<missing-glyph horiz-adv-x="675" />
<glyph horiz-adv-x="0" />
<glyph unicode="&#xd;" horiz-adv-x="675" />
<glyph unicode=" "  horiz-adv-x="675" />
<glyph unicode="&#x09;" horiz-adv-x="675" />
<glyph unicode="&#xa0;" horiz-adv-x="675" />
<glyph unicode="!" horiz-adv-x="667" d="M96 80q0 66 33 155t86 89q47 0 82 -37t35 -90q0 -86 -39 -151.5t-90 -65.5q-43 0 -75 29.5t-32 70.5zM209 471q0 29 25.5 85t74.5 178t83 202t118 256l57 123q35 80 72 80q45 0 106.5 -21.5t61.5 -50.5q0 -25 -16.5 -57.5t-61.5 -118.5l-131 -248l-209 -420l8 -33 q0 -39 -20.5 -65.5t-48.5 -26.5q-39 0 -79 38t-40 79z" />
<glyph unicode="&#x22;" horiz-adv-x="696" d="M242 942q0 74 33.5 191.5t63.5 180t60 62.5q14 0 33 -19.5t30 -34t11 -32.5q0 -47 -41 -143t-63 -150l2 -32q-16 -53 -36 -104.5t-46 -51.5q-16 0 -31.5 45t-15.5 88zM508 942q0 74 33.5 191.5t63.5 180t61 62.5q14 0 32.5 -19.5t29.5 -34t11 -32.5q0 -47 -41 -143 t-63 -150l2 -32q-16 -53 -35.5 -104.5t-46.5 -51.5q-16 0 -31.5 45t-15.5 88z" />
<glyph unicode="#" horiz-adv-x="1513" d="M68 422q0 70 86 99.5t307 29.5l139 235q-84 0 -153.5 -10t-147.5 -28l-25 -5q-35 0 -34 56q0 70 87 99.5t300 29.5h65l133 200q78 131 113 132q16 0 28.5 -20.5t12.5 -51.5q0 -63 -52.5 -139t-84.5 -121l262 -8l141 215q78 131 113 131q16 0 28.5 -20.5t12.5 -51.5 q0 -66 -59.5 -149.5t-94.5 -133.5q37 0 94.5 -5t65.5 -5q96 0 134 -10t38 -35q0 -35 -37 -57.5t-100 -22.5q-47 0 -141.5 7.5t-127.5 7.5l-10 -17l-127 -219l-8 -16q70 -6 121 -10.5t86 -4.5q96 0 134 -10t38 -33q0 -37 -37 -59.5t-100 -22.5q-51 0 -153.5 8.5t-156.5 8.5 q-100 -195 -122.5 -275t-47.5 -80q-37 0 -61.5 27t-24.5 64q0 45 19.5 98t81.5 170l-260 -4q-47 -92 -81 -169t-50.5 -134.5t-40.5 -57.5q-37 0 -61.5 27t-24.5 63q0 45 17 92.5t81 170.5q-66 0 -111 -6.5t-145 -30.5l-25 -4q-35 0 -34 55zM616 553l256 -6l148 248l-264 -2z " />
<glyph unicode="$" horiz-adv-x="1142" d="M-94 121q0 47 49 100t94 53q31 0 103.5 -4t78.5 -4q31 0 61 2t95 8q61 168 75.5 203t49.5 113q-106 18 -211 37q-125 33 -125 123q0 82 44 177t130 151.5t215 101.5t262 61q100 195 142.5 238t122.5 43q31 0 46 -3t15 -26q0 -55 -53 -122.5t-86 -108.5l71 2 q232 -1 232 -62q0 -109 -51.5 -154.5t-118 -70.5t-135 -65t-92.5 -40q-20 0 -21 21q0 18 27 39l121 94q-59 0 -96.5 -7t-69.5 -11q-29 -55 -80 -154.5t-82 -171.5q145 -35 240.5 -85t95.5 -150q0 -55 -42 -124t-113 -119t-153.5 -78t-263.5 -75q-18 -70 -28.5 -118 t-10.5 -80q0 -70 -22 -70q-45 6 -83 46t-38 83q0 33 16 121q-37 0 -72.5 -3t-76.5 -5q-262 0 -262 94zM367 801q0 -47 206 -80l125 258q-133 -37 -232 -90t-99 -88zM573 297l19 6q170 49 232.5 81t62.5 71q0 37 -86 65q-104 29 -133 37z" />
<glyph unicode="%" horiz-adv-x="1476" d="M256 922q0 190 97.5 284t182.5 144.5t134 50.5q45 0 65 -47l4 -15q0 -14 -20 -36q110 0 110 -113q0 -154 -122.5 -319.5t-270.5 -165.5q-70 0 -125 65.5t-55 151.5zM285 47q0 102 147 287l342 424q223 279 424 442l98 82q66 59 86 59q13 1 13 -32q0 -115 -115 -248 q-84 -88 -184.5 -195.5t-292 -349.5t-285.5 -393l-43 -70q-23 -49 -40 -85t-46 -36q-41 0 -72.5 36t-31.5 79zM414 932l6 -60q98 0 162.5 84t124.5 218l8 32q0 35 -31 35q-10 0 -35.5 -23.5t-40.5 -23.5q-10 0 -35 18q-160 -121 -159 -280zM821 203q0 188 102.5 285.5 t180.5 144.5t133 47q23 0 46.5 -19.5t23.5 -42.5q0 -14 -21 -34q109 0 109 -115q0 -154 -122 -318.5t-272 -164.5q-70 0 -125 65.5t-55 151.5zM979 213l6 -59q100 0 161.5 79.5t127.5 221.5l8 30q0 35 -31 35q-14 0 -37.5 -23.5t-39.5 -23.5q-6 2 -11.5 4t-21.5 15 q-162 -123 -162 -279z" />
<glyph unicode="&#x26;" horiz-adv-x="1298" d="M6 279q0 178 126 305t323 225l-2 55q0 111 30.5 182.5t117.5 152.5t202 134t209 53q86 0 145.5 -55t59.5 -137q0 -158 -259 -313q-166 -90 -225 -121q18 -86 35.5 -130t65.5 -120q121 78 174 120t149 134q41 -115 41 -141q0 -70 -49 -135.5t-180 -168.5q31 -35 43 -45 t26 -10q8 0 24.5 8.5t29.5 8.5q31 0 30 -35q0 -51 -66.5 -149.5t-119.5 -98.5q-27 0 -69 36t-109 111q-160 -100 -256 -139t-180 -39q-129 0 -222.5 91.5t-93.5 220.5zM221 313q0 -49 78 -49t140 21t173 82q-12 23 -43.5 93t-68.5 163q-92 -57 -139.5 -98.5t-93.5 -112 t-46 -99.5zM707 940q325 201 325 322q0 27 -24 26q-57 0 -127 -47t-107 -109.5t-67 -191.5z" />
<glyph unicode="'" horiz-adv-x="491" d="M231 942q0 74 34 191.5t63.5 180t60.5 62.5q14 0 32.5 -19.5t30 -34t11.5 -32.5q0 -47 -41 -143t-64 -150l2 -32q-16 -53 -35.5 -104.5t-45.5 -51.5q-16 0 -32 45t-16 88z" />
<glyph unicode="(" horiz-adv-x="780" d="M190 80q0 229 52.5 428t159 420t220 388t197.5 167q31 0 53.5 -20.5t22.5 -49.5q0 -33 -108.5 -192.5t-240.5 -491.5t-132 -586q0 -35 20 -184l17 6q14 0 24 -21.5t10 -56.5q0 -59 -34.5 -102t-85.5 -43q-84 0 -129.5 86t-45.5 252z" />
<glyph unicode=")" horiz-adv-x="780" d="M-6 -197q0 43 110.5 201t239.5 501t129 568q0 37 -4 71t-14 118l-17 -7q-14 0 -24.5 20.5t-10.5 51.5q0 63 35 107.5t84 44.5q82 0 129 -89t47 -249q0 -229 -53 -429t-165.5 -430.5t-216 -387t-195.5 -156.5q-27 0 -50.5 19.5t-23.5 45.5z" />
<glyph unicode="*" horiz-adv-x="833" d="M287 895q0 35 66.5 80t140.5 86l-39 35q-47 33 -87 62.5t-40 60.5q0 18 18.5 40.5t36.5 22.5t70.5 -47t91.5 -82v51q0 117 10 148.5t47 31.5q68 0 68 -32q0 -31 -11.5 -107t-11.5 -98l156 76q25 12 43 19t33 7q8 -14 8 -26l4 -39q0 -29 -17.5 -40t-65.5 -31.5t-122 -65.5 q76 -63 124 -104.5t48 -55.5q0 -12 -13.5 -36t-29.5 -46q-53 43 -99 80t-83 65q0 -41 -6 -120.5t-6 -120.5l-9 -2q-98 0 -98 81q0 45 6 91.5t10 72.5q-16 -10 -103 -69.5t-93 -59.5q-20 0 -33.5 19.5t-13.5 52.5z" />
<glyph unicode="+" horiz-adv-x="1142" d="M174 567q0 16 27 39q39 43 80 88q35 29 112 29q27 0 78 4t78 4q57 133 126.5 246t137.5 113q45 0 76 -31t31 -41q0 -51 -48.5 -136t-74.5 -134q57 0 144 6t89 6l8 2q49 0 49 -31q0 -18 -18 -47t-37.5 -61.5t-40 -45t-76.5 -12.5l-223 -18q-45 -82 -72.5 -174t-27.5 -180 q0 -16 -10 -23q-88 0 -151.5 17.5t-63.5 78.5q0 59 30.5 131t61.5 138q-33 0 -100.5 -6.5t-102.5 -6.5q-27 0 -54.5 11.5t-27.5 33.5z" />
<glyph unicode="," horiz-adv-x="606" d="M61 -123q41 55 57.5 79t35.5 60q-76 23 -76 74q0 74 61.5 133.5t134.5 59.5q97 -1 97 -54q0 -80 -103.5 -217t-179.5 -137z" />
<glyph unicode="-" horiz-adv-x="575" d="M25 504q0 35 54 81t95 46q53 0 139 -5t101 -5q14 8 33.5 15t35.5 7t40 -4t50.5 -10.5t26.5 -20.5q0 -10 -18.5 -28.5t-69.5 -49t-136 -47t-263 -16.5q-88 0 -88 37z" />
<glyph unicode="." horiz-adv-x="608" d="M66 74q0 82 59 149.5t131 67.5q111 -1 111 -64q0 -72 -53.5 -153.5t-118.5 -81.5q-129 0 -129 82z" />
<glyph unicode="/" horiz-adv-x="856" d="M12 -84q0 98 98.5 299t229.5 419t225 357l228 344q113 188 163 189q33 0 46.5 -35t13.5 -80q0 -39 -14.5 -71.5t-110.5 -173t-243.5 -384t-275.5 -495.5t-165 -375t-72 -123q-49 0 -86 39t-37 90z" />
<glyph unicode="0" d="M45 295q0 190 108.5 399t252 333t299 207t262.5 83q70 0 122 -60.5t52 -78.5q0 -12 -13 -21q-20 -8 -32 -14l-17 -6q103 -44 103 -191q0 -176 -74 -354t-202 -316.5t-281.5 -220.5t-284.5 -82q-123 0 -209 94.5t-86 227.5zM266 279q0 -45 19.5 -91.5t58.5 -46.5 q66 0 208 113t237.5 218.5t168 241.5t72.5 218q0 43 -23.5 74.5t-54.5 31.5q-29 0 -55.5 -21.5t-40.5 -32.5t-29 -15q-18 0 -18 35q-154 -94 -254 -178.5t-194.5 -234t-94.5 -312.5z" />
<glyph unicode="1" d="M252 113q0 61 39 175.5t85 205t64.5 119t126 182t195.5 274.5l-217 -84l-33 -10q-16 0 -16 24q0 35 4 51.5t28.5 36t98 60.5t175 97t136.5 56t66.5 -53t31.5 -90q0 -49 -141 -291l-190 -317q-96 -160 -161 -292t-65 -226q8 -33 8 -70q0 -29 -24 -29q-14 0 -62.5 25 t-98.5 52.5t-50 103.5z" />
<glyph unicode="2" d="M27 205q0 96 134 210.5t268 191.5t296 162t213 123t84 83t33 65q0 55 -80 56q-121 0 -247 -47.5t-310 -137.5q57 -6 117 -12q80 -14 79 -47q0 -31 -51 -37q-72 -16 -163 -34.5t-117 -18.5q-23 0 -38.5 19.5t-15.5 47.5q0 68 37 156t105.5 158.5t249 117t346.5 46.5 q119 0 164 -63.5t45 -231.5q0 -94 -16.5 -140.5t-78 -100.5t-148.5 -110.5t-235.5 -138.5t-252 -142.5t-248.5 -168.5q197 16 391 50t397 85q-47 -143 -83 -201.5t-101.5 -89t-235.5 -55.5t-346 -25q-90 0 -141 61.5t-51 168.5z" />
<glyph unicode="3" d="M-76 147q0 39 69.5 115t104.5 76q31 0 31 -25q0 -12 -15.5 -28.5t-29.5 -30.5q109 -43 209 -43q125 0 354.5 78t229.5 160q0 53 -100.5 87.5t-254.5 34.5q-123 0 -217 -22l-37 -6q-35 0 -35 45q0 178 263.5 214t414 88t188.5 84t38 64q0 45 -39 61.5t-148 16.5 q-127 0 -238.5 -19.5t-226.5 -62.5l82 -20q33 -10 33 -25q0 -39 -221 -39q-104 0 -105 109q0 125 204 185.5t370 60.5q180 0 301 -49t121 -203q0 -61 -31 -118.5t-103.5 -103t-248.5 -84t-281 -61.5q250 -39 336 -99.5t86 -170.5q0 -174 -226.5 -307.5t-520.5 -133.5 q-152 0 -254.5 49.5t-102.5 122.5z" />
<glyph unicode="4" d="M41 487q0 61 63.5 158.5t185.5 202t320.5 219.5t337.5 174t209 59q72 0 72 -51q0 -18 -7.5 -30.5t-31.5 -36.5q25 -18 33 -32.5t8 -43.5q0 -47 -25.5 -93t-109.5 -153.5t-121 -162t-86 -132.5q37 0 94 5t68 5q68 0 67 -49q0 -33 -31.5 -88t-58.5 -102q-66 -10 -120 -17.5 t-165 -17.5q-12 -35 -23 -73t-11 -68q0 -25 7 -43.5t34 -55.5q-72 -41 -141.5 -77.5t-94.5 -36.5q-53 0 -53 92q0 66 7 110t32 136q-61 0 -166 -5.5t-125 -5.5q-78 0 -123 57.5t-45 155.5zM281 557q0 -25 49 -25l51 -2q123 0 244 19q74 106 130 176t163.5 194t193.5 222 q-180 -76 -274.5 -122t-245 -164t-231 -195.5t-80.5 -102.5z" />
<glyph unicode="5" d="M-18 147q0 61 37.5 101.5t140 85.5t135.5 45q35 0 35 -25q0 -10 -68.5 -62t-95.5 -71q190 25 338.5 69t242 105.5t136.5 113.5t43 85q0 31 -44 53.5t-108 22.5q-76 0 -217 -31t-182 -31q-57 0 -90 67.5t-33 135.5q0 55 41 120.5t151.5 181.5t161.5 154t156 38l258 -2 l270 2q-70 -129 -103.5 -177.5t-68.5 -67t-125 -18.5l-366 7q-63 -63 -95 -102.5t-75 -112.5q104 27 158.5 36t117.5 9q154 0 242 -76t88 -207q0 -256 -257 -436t-624 -180q-123 0 -161.5 31.5t-38.5 135.5z" />
<glyph unicode="6" d="M109 395q0 172 134 363.5t329.5 336t264 177.5t148.5 33q115 0 147.5 -4.5t32.5 -20.5q0 -25 -94 -68t-249.5 -168.5t-293.5 -263.5q94 43 152.5 60.5t97.5 17.5q111 0 182.5 -71.5t71.5 -184.5q0 -129 -76.5 -255t-187.5 -209t-191.5 -124t-117.5 -41q-20 0 -107.5 36 t-165 143.5t-77.5 242.5zM334 303q0 -127 57 -127q49 0 168 76t184.5 170t75.5 217q0 39 -8 58.5t-41 19.5q-47 0 -127 -49.5t-176 -136.5t-114.5 -118.5t-18.5 -109.5z" />
<glyph unicode="7" d="M270 965q0 29 78 135t124 133t211 47t366 20q137 0 181 -35.5t44 -148.5q0 -27 -21.5 -54.5t-108.5 -94t-220 -222t-181.5 -250t-71 -158t-73.5 -216.5q23 12 41 12q31 0 31 -22q0 -23 -122 -98.5t-175 -75.5q-43 0 -72 32.5t-29 83.5q0 133 125 319.5t266.5 338 t323.5 329.5l-176 4q-240 0 -346 -53q-35 -23 -76 -46t-70 -23q-14 0 -31.5 13t-17.5 30z" />
<glyph unicode="8" d="M127 131q0 131 139.5 260t222.5 205q-80 96 -121.5 164.5t-41.5 154.5q0 166 129 251t307 113t350 28q109 0 144.5 -10.5t35.5 -43.5q0 -43 -50 -126t-93 -83l-29 5l4 -35q0 -23 -11 -38t-58 -61l-334 -299q63 -88 83.5 -144t20.5 -142q0 -166 -146.5 -262.5 t-322.5 -96.5q-94 0 -161.5 47.5t-67.5 112.5zM289 162q0 -51 73 -51q111 0 193 63.5t82 149.5q0 41 -12.5 73.5t-49.5 85.5l-188 -172q-98 -92 -98 -149zM535 895q0 -51 102 -180l395 342l-155 4q-164 0 -253 -43t-89 -123z" />
<glyph unicode="9" d="M184 743q0 215 300 389.5t526 174.5q47 0 76.5 -25t74.5 -82q31 -35 44.5 -57.5t13.5 -36.5q0 -23 -18.5 -43.5t-66 -51t-95.5 -60t-74 -29.5q-25 0 -25 20q0 12 21 31l88 84q-236 -72 -308.5 -100.5t-156.5 -84t-134.5 -125t-50.5 -135.5q0 -25 29 -24q92 0 258 76.5 t253 150.5t117.5 90.5t61.5 16.5q20 0 36.5 -8.5t39.5 -18.5t23 -29q0 -25 -52 -84l-354 -424l-61 -67q-90 -106 -179 -211q-127 -131 -225 -131q-43 0 -43 33q0 18 20.5 57t51.5 82t45 49t51 6l381 457q-106 -70 -216 -136.5t-192 -66.5q-88 0 -174 110.5t-86 202.5z" />
<glyph unicode=":" horiz-adv-x="608" d="M68 74q0 88 57 145t75.5 64.5t57.5 7.5q111 -1 111 -64q0 -29 -20.5 -79t-55.5 -103t-96 -53q-129 0 -129 82zM307 553q0 88 63.5 151.5t127.5 63.5q110 0 110 -63q0 -29 -20.5 -79.5t-55 -103.5t-98.5 -53q-127 0 -127 84z" />
<glyph unicode=";" horiz-adv-x="608" d="M63 -123q41 55 57.5 79t35.5 60q-78 20 -78 74q0 68 60.5 130.5t125.5 62.5q107 0 107 -43q0 -88 -97.5 -226.5t-183.5 -138.5zM307 553q0 37 25.5 87t64.5 89t101 39q110 0 110 -63q0 -29 -20.5 -79.5t-55 -103.5t-96.5 -53q-129 0 -129 84z" />
<glyph unicode="&#x3c;" horiz-adv-x="1026" d="M61 612v158l887 430v-186l-690 -322l690 -323v-183z" />
<glyph unicode="=" horiz-adv-x="1142" d="M129 401q0 16 27 39q55 68 78.5 92.5t113.5 24.5l488 31q25 0 73.5 4t73.5 4q31 0 45 -4t14 -27q0 -12 -19 -47t-48 -82q-31 -37 -105 -37q-176 -20 -338.5 -31.5t-320.5 -11.5q-29 0 -55.5 10.5t-26.5 34.5zM252 700q0 18 27 41q61 68 85.5 92.5t106.5 24.5l487 29 q63 8 150 8q57 0 57 -29q0 -12 -10 -32l-35 -58q-31 -53 -49 -64.5t-78 -11.5q-176 -20 -338.5 -31.5t-320.5 -11.5q-39 0 -60.5 12.5t-21.5 30.5z" />
<glyph unicode="&#x3e;" horiz-adv-x="1026" d="M233 186v185l691 321l-691 324v184l889 -430v-158z" />
<glyph unicode="?" horiz-adv-x="905" d="M211 92q0 57 40 140t87 83q43 0 74.5 -39.5t31.5 -82.5q0 -53 -33.5 -134.5t-78.5 -81.5q-43 0 -82 37t-39 78zM258 1085q0 37 18.5 87.5t48 92.5t157.5 80.5t263 38.5q238 0 238 -215q0 -109 -63.5 -227.5t-144.5 -217.5t-160.5 -182t-79.5 -124l4 -51q0 -53 -41 -54 q-47 0 -83 46.5t-36 95.5q0 68 39 130t157.5 175.5t187 168t96.5 90.5t28 73q0 47 -30 66.5t-103 19.5q-82 0 -145.5 -14.5t-176.5 -57.5q23 -10 47 -19q33 -16 33 -36q0 -27 -13.5 -33t-23.5 -8q-23 0 -63.5 10t-55.5 10q-61 0 -79.5 10.5t-18.5 44.5z" />
<glyph unicode="@" horiz-adv-x="1540" d="M193 616q0 330 208.5 549t520.5 219q238 0 411.5 -143t173.5 -338q0 -199 -183 -384t-372 -185q-37 0 -62.5 25.5t-25.5 62.5q0 31 13.5 69.5t58.5 145.5q-162 -121 -246 -181.5t-121 -60.5q-49 0 -98 81t-49 134q0 162 251 299.5t427 137.5q53 0 88 -25t35 -64 q0 -25 -39 -36l-29 -15q59 -25 59 -69q0 -43 -85 -128t-85 -122q0 -25 18.5 -41.5t43.5 -16.5q104 0 202.5 136.5t98.5 251.5q0 168 -124 262t-298 94q-289 0 -479.5 -184.5t-190.5 -466.5q0 -231 129 -362.5t363 -131.5q145 0 285.5 53.5t215 107.5t81 57t14.5 5 q16 0 39.5 -25.5t30.5 -25.5l20 -16q-166 -145 -343 -223t-345 -78q-260 0 -436 182t-176 450zM555 580q0 -47 45 -48q10 0 65.5 33t128 81t121.5 93t123 127q-256 -66 -369.5 -133t-113.5 -153z" />
<glyph unicode="A" horiz-adv-x="1449" d="M-233 -72q0 41 59 113t114.5 115t86 59t90.5 41l157 174l-110 -4q-37 0 -60.5 8t-23.5 37q0 23 19.5 48.5t90 89t137 98t165.5 33.5q33 0 32 -13q0 -20 -73.5 -28.5t-73.5 -24.5q0 -20 31 -21l127 6q217 186 313 267.5t224 181.5t261 187t185 87q29 0 50 -23t21 -52 q0 -33 -7 -52.5t-44 -85.5l-260 -460l115 4l6 2q20 0 57 -13q-49 -57 -75.5 -98t-77.5 -133l-164 -8q-61 -98 -96 -161.5t-35 -82.5q0 -12 13 -23.5t28 -11.5q20 0 58 23.5t118 87.5l37 -53q-131 -123 -224.5 -191.5t-189.5 -68.5q-43 0 -74 30.5t-31 75.5q0 92 57.5 192.5 t96.5 163.5l-442 -14l-437 -430q-72 -70 -108.5 -92.5t-79.5 -22.5q-63 0 -63 43zM733 680l318 20l278 467q-178 -131 -300 -230t-296 -257z" />
<glyph unicode="B" horiz-adv-x="1351" d="M20 911q0 23 7.5 38.5t67 103.5t114.5 134t230 97t342 80t321 29q182 0 290.5 -63.5t108.5 -172.5q0 -217 -234.5 -304t-623.5 -161l-37 -35q272 -39 452.5 -89t180.5 -171q0 -55 -58.5 -125.5t-172 -139.5t-263 -112t-301.5 -43q-158 0 -256 59.5t-98 158.5 q0 86 57.5 168.5t171.5 220.5q-86 0 -131 20.5t-45 52.5q0 57 148 87q166 25 196 30q166 166 250 233.5t197 67.5q18 0 18 -14q0 -23 -86 -120t-112 -128q154 20 236.5 40.5t163.5 58.5t127 80t46 75q0 41 -52 65.5t-140 24.5q-172 0 -332 -32.5t-342 -96.5q27 -18 26 -31 q0 -31 -73.5 -47t-149.5 -32q-94 -31 -188 -60q-55 0 -56 53zM336 326q0 -51 60.5 -84t156.5 -33q113 0 282 68.5t169 142.5q0 66 -136.5 91.5t-349.5 47.5q-68 -74 -135 -145q-47 -59 -47 -88z" />
<glyph unicode="C" horiz-adv-x="1402" d="M-53 111q0 182 139 416.5t338 413.5t435.5 322.5t391.5 143.5q96 0 150.5 -50t54.5 -138q0 -141 -145.5 -339t-334 -346.5t-296.5 -148.5q-47 0 -78 26.5t-31 71.5q0 31 20.5 67t53.5 64l178 158l66 59q18 18 35 19q29 0 28 -29l-6 -22q141 119 236.5 240.5t95.5 183.5 q0 45 -45 45q-59 0 -162.5 -59.5t-237 -171t-268.5 -259t-229 -311.5t-94 -305q0 -100 54 -160.5t148 -60.5q137 0 304 80.5t298.5 176t311.5 242.5l2 -39q0 -45 -41 -97t-224.5 -205.5t-389 -258t-373.5 -104.5q-174 0 -279.5 101.5t-105.5 273.5z" />
<glyph unicode="D" horiz-adv-x="1556" d="M20 938q0 37 12.5 79t38 139t341 177t544.5 80q201 0 348.5 -53t205 -131t86 -172t28.5 -178q0 -274 -221 -480t-539.5 -317t-584.5 -111q-109 0 -150 27t-41 100q0 137 104.5 291t264.5 334l311 383q-152 -16 -241 -36.5t-193 -65.5l108 -2q53 0 54 -21 q0 -23 -115 -49.5t-281 -65.5q-80 0 -80 72zM305 272q0 -59 117 -59q84 0 277.5 21.5t485.5 189.5t292 416q0 135 -143.5 202.5t-452.5 67.5q-16 -61 -28.5 -89t-65 -91.5t-112 -138t-138 -175t-155.5 -200t-77 -144.5z" />
<glyph unicode="E" horiz-adv-x="1335" d="M-53 104q0 88 71.5 173t168 147.5t209 109t331.5 113.5q-334 39 -443.5 64.5t-109.5 173.5q0 63 46 141t159 165t311.5 143.5t415.5 56.5q158 0 236.5 -15.5t78.5 -44.5l9 -143q0 -43 -28 -61.5t-103.5 -45t-137 -64.5t-86 -51.5t-43.5 -13.5q-25 0 -24 21q0 18 32 45 l111 98q-141 0 -224 -11t-189.5 -41t-220.5 -86t-114 -118q0 -76 140 -76l219 -12l121 -2l200 4q98 0 99 -45q0 -74 -56.5 -111.5t-234.5 -72.5t-325.5 -88.5t-216 -103.5t-121 -99t-52.5 -82q0 -41 60.5 -63.5t169.5 -22.5q143 0 283 41t247.5 94t294.5 162l2 -59 q0 -111 -45 -182.5t-250 -189.5t-576 -118q-246 0 -330.5 70.5t-84.5 199.5z" />
<glyph unicode="F" horiz-adv-x="1323" d="M8 803q0 29 15.5 59.5t74 140t125 159.5t258 99.5t407.5 87t417 37.5h3q173 0 173 -110q0 -106 -97.5 -290.5t-226.5 -385.5q43 -4 68.5 -8t68.5 -14q-29 -39 -47 -69t-41.5 -72t-56.5 -56t-162 -37q-137 -147 -263 -278.5t-274.5 -256t-222.5 -124.5q-45 0 -45 53 q0 33 29 78t84 107.5t99 90t124 49.5q61 61 127 130t111 122q-160 -24 -321 -24h-13q-47 0 -63.5 8t-16.5 33q0 102 122 153.5t239.5 78t285.5 48.5q47 68 142.5 224.5t95.5 234.5q0 55 -62 55q-162 0 -412.5 -68.5t-441.5 -152.5l103 4q45 0 45 -22q0 -16 -62 -33 q-27 0 -159 -48t-183 -48q-47 0 -47 45z" />
<glyph unicode="G" horiz-adv-x="1380" d="M-20 356q0 156 105 336t280.5 319.5t376 225.5t362.5 117.5t171 33t34 1.5q49 0 80.5 -44t31.5 -110q0 -39 -21.5 -66.5t-92 -71.5t-172 -105.5t-140.5 -61.5q-27 0 -26 26q0 14 22.5 33t56 47.5t64.5 55.5q-147 -47 -228 -84t-217.5 -120t-322.5 -258t-186 -304 q0 -37 18.5 -59.5t50.5 -22.5q49 0 138 61l241 170l344 252l160 139q33 27 49 27q29 0 76 -34t47 -56q0 -20 -10 -36.5t-19 -33.5l-90 -162l-145 -219l-141 -219q201 117 271.5 160t178.5 127q0 -76 -35 -117t-209 -160l-225 -151l-125 -82q-137 -162 -284.5 -303.5 t-241.5 -141.5q-35 0 -56.5 26t-21.5 67q0 43 41 112.5t109.5 140t224.5 150.5q143 184 199.5 271t130.5 233q-152 -111 -302 -221q-219 -147 -325 -148q-96 0 -161.5 74t-65.5 186z" />
<glyph unicode="H" horiz-adv-x="1710" d="M4 840q0 39 25.5 119.5t75 123.5t241 119t408.5 135.5t434 59.5q104 0 165.5 -48.5t61.5 -150.5q0 -70 -43 -141.5t-160 -194.5l-233 -241q78 12 146.5 23t166.5 11q80 102 175.5 222t182.5 224.5t115.5 132.5t44.5 28q14 0 25.5 -16t11.5 -34q0 -61 -25.5 -106 t-140.5 -182l-223 -267q127 0 168 -7t109 -44q-90 -74 -136.5 -124t-109.5 -146q-90 16 -137 16l-68 -2q-53 -72 -80.5 -118t-27.5 -95q0 -31 9 -63.5t13 -50.5q-29 -6 -118 -37t-99 -31q-23 0 -37 20.5t-14 49.5q0 68 44 156.5t87 168.5q-98 0 -175 -10t-198 -39 q-74 -80 -125 -135t-93 -117.5t-66.5 -85t-51.5 -22.5q-33 0 -62.5 27.5t-29.5 60.5q0 31 60.5 108.5t111.5 141.5q-20 -4 -43.5 -4.5t-36.5 -0.5q-123 0 -123 91q0 51 32 84.5t49.5 48t23.5 14.5q8 0 26.5 -6t26.5 -6q14 0 116.5 23.5t217.5 49.5l199 201l206 230 q90 104 91 143q0 37 -70 37q-152 0 -327 -57.5t-374 -149.5q29 -12 29 -29q0 -29 -65.5 -54.5t-122.5 -45.5q-70 -41 -129.5 -72t-96.5 -31q-25 0 -41 27t-16 68z" />
<glyph unicode="I" horiz-adv-x="911" d="M16 727q0 92 102.5 235.5t231.5 237.5t265.5 146.5t240.5 52.5q88 0 143.5 -61.5t55.5 -159.5q0 -180 -140.5 -430t-363.5 -580l4 -31q0 -51 -53 -125.5t-103 -74.5q-39 0 -74.5 31.5t-35.5 70.5q0 23 67.5 122t79.5 118l226 346q86 131 147 267t61 198q0 79 -52 79h-1 q-18 0 -63 -21.5t-147.5 -81.5t-169 -123.5t-156.5 -190.5q63 10 127 20q18 0 18 -22q0 -25 -99.5 -97.5t-131.5 -72.5q-43 0 -111 57t-68 90z" />
<glyph unicode="J" horiz-adv-x="1052" d="M-154 -412q0 117 108.5 239t248 218t289.5 184l126 213q88 152 152 272t113 245.5t73 261.5q-141 -53 -213.5 -104.5t-175 -172.5t-147.5 -210t-84 -242l113 67l28 14q16 0 17 -16q0 -29 -130.5 -161t-195.5 -132q-82 0 -82 121q0 137 80 332.5t196.5 335t304 244 t328.5 104.5q49 0 93.5 -44t44.5 -91q0 -29 -25 -123t-83 -227.5t-119.5 -245t-196.5 -348.5l239 100l25 -64q-119 -53 -174.5 -78.5t-184.5 -91.5q-96 -115 -227 -270.5t-267 -287.5t-198 -132q-31 0 -53.5 26.5t-22.5 63.5z" />
<glyph unicode="K" horiz-adv-x="1587" d="M-23 881q0 143 61.5 214.5t161 146.5t113.5 75q25 0 25 -25q0 -12 -12 -22l-82 -78q152 59 271.5 104t231 73t226.5 28q51 0 98 -60.5t47 -105.5q0 -31 -37 -84l-120 -176l673 315q49 23 67.5 30t29.5 7q10 0 25.5 -9.5t15.5 -29.5q0 -27 -45.5 -82t-104.5 -100 q-23 -20 -76 -21h-37l-649 -319q-86 -41 -115.5 -66.5t-29.5 -58.5q0 -27 18.5 -40t65.5 -42l540 -313q160 -92 160 -222q0 -39 -14.5 -67.5t-34.5 -28.5q-10 0 -27.5 6.5t-54.5 26.5l-813 451l-164 -195q-8 -43 -21.5 -68.5t-53.5 -65.5t-91 -69.5t-86 -29.5q-51 0 -51 49 q0 31 29 65l319 410q-35 45 -35 82q0 88 109 145l235 125l199 307q-160 -35 -348 -102.5t-283.5 -120.5t-159 -88t-106.5 -35q-70 0 -70 64z" />
<glyph unicode="L" horiz-adv-x="1280" d="M-185 188.5q89 106.5 203 120.5q129 10 160 13q43 49 240.5 291.5t298 357t228.5 230.5t197.5 164t104.5 48q45 0 76 -35t31 -88q0 -111 -91.5 -257t-144.5 -232q35 -6 35 -27q0 -29 -120 -126t-173 -97q-45 0 -45 57q0 106 85 240.5t145.5 197t60.5 74.5l-10 10 q-16 0 -47 -30q-117 -102 -244 -250l-252 -293l-217 -242q190 0 464.5 -69.5t356.5 -85.5q-68 -70 -133 -137q-88 -78 -168 -78q-45 0 -133 16q-109 25 -221.5 47.5t-247.5 40t-260 17.5q-47 -25 -100.5 -49.5t-96.5 -24.5q-71 0 -71 38q0 52 89 158.5z" />
<glyph unicode="M" horiz-adv-x="2308" d="M10 887l6 47q39 215 103 266q82 55 121 82t47 30t16 7q23 0 23 -21q0 -10 -27 -38l-80 -80l211 92l275 117q29 12 64.5 25t59.5 13q31 0 46.5 -11t25.5 -31.5t51 -89t41 -101.5q0 -37 -49 -149.5t-90 -202.5q100 100 199.5 195.5t178.5 161t164 122.5t124 57q55 0 98 -41 t43 -96q0 -123 -137.5 -327.5t-169.5 -254.5l96 84l299 267l379 311q57 47 90 47q37 0 84 -73.5t47 -102.5q0 -41 -105.5 -156.5t-236.5 -278.5t-179 -239t-79 -166t-31 -145q0 -35 16.5 -59.5t43.5 -24.5q66 0 189.5 87t299.5 259q6 -31 7 -40t1 -32q0 -78 -268 -281.5 t-399 -203.5q-78 0 -128 64.5t-50 164.5q0 117 65.5 247t162.5 258t185 241q-242 -193 -366.5 -309.5t-298.5 -317.5t-226.5 -255t-79.5 -54q-37 0 -63.5 59.5t-26.5 141.5q0 59 68 143l158 199l247 354l88 160q14 33 15 41q0 27 -27 26q-6 0 -17 -6t-44 -37l-178 -174 q-78 -74 -246 -274.5t-279 -352.5q-63 -102 -121.5 -179t-123.5 -77q-41 0 -72 48.5t-72 175.5q102 119 212 249t194 255.5t129 232t55 137.5t10 43q0 37 -28 37l-29 -10l-172 -82q-150 -84 -285 -158t-203 -74q-51 0 -51 58z" />
<glyph unicode="N" horiz-adv-x="1687" d="M8 809q0 104 36 177t128 164t157.5 140t94.5 49l14 -4l6 -14q0 -14 -39.5 -57t-68.5 -74q135 72 272 143q164 76 295 76q129 0 129 -131q0 -70 -87 -248t-273 -491l155 178q96 113 234.5 257t282 267t208.5 123q45 0 104.5 -70t59.5 -129q0 -43 -68.5 -133t-177 -249.5 t-196.5 -320.5t-88 -241q0 -31 16.5 -51t42.5 -20q47 0 151.5 90t254.5 256l6 -66q0 -106 -244 -331.5t-369 -225.5q-66 0 -104.5 47t-38.5 125q0 100 83 279.5t189.5 362.5t194.5 333q-182 -156 -266 -238t-307.5 -351t-280.5 -361.5t-86 -92.5q-37 0 -97.5 45.5 t-60.5 81.5q0 8 69 124t144 245l146 266q141 256 141 324q0 43 -31 43q-98 0 -319 -134t-286.5 -180.5t-86.5 -46.5q-39 0 -39 64z" />
<glyph unicode="O" horiz-adv-x="1234" d="M4 408q0 199 166 419t365.5 340.5t326.5 169.5t195 49q74 0 131 -67.5t57 -95.5q0 -27 -49 -49l-141 -64l86 8h2q157 0 157 -196q0 -213 -172 -461t-378.5 -359.5t-389.5 -111.5q-104 0 -169.5 35.5t-126 138t-60.5 244.5zM203 276q0 -135 104 -135q176 0 385 158 t320.5 343t111.5 267q0 104 -84 105q-117 0 -271.5 -92.5t-220 -181.5t-87.5 -89q-27 0 -27 56q-129 -137 -180 -241t-51 -190z" />
<glyph unicode="P" horiz-adv-x="1417" d="M-6 -23q0 70 97 227.5t102 164.5q-51 35 -70 62.5t-19 66.5q0 63 66 103t258 95l324 426q-174 -14 -296 -34.5t-222.5 -54.5t-126 -40t-50.5 -6q-31 0 -30 19q0 37 71.5 144t113.5 143t249 77t424 41q354 0 490 -112t136 -298q0 -322 -304 -500.5t-650 -178.5 q-76 0 -124 5t-97 9l-86 -137q39 -8 39 -39q0 -35 -87 -145.5t-136 -110.5q-72 0 -72 73zM518 573q119 -10 170 -10q156 0 324 64.5t229.5 130t92 130t30.5 101.5q0 82 -168 113t-328 31q0 -57 -28 -95l-230 -315q68 10 125 10q33 0 33 -22q0 -16 -29 -25l-176 -45z" />
<glyph unicode="Q" horiz-adv-x="1366" d="M-59 2q0 59 37.5 149.5t82.5 127t117 36.5l98 -2q229 125 349 203t239 178.5t229.5 225t110.5 198.5q0 51 -76 51q-43 0 -125.5 -24.5t-201.5 -71.5t-191.5 -87t-181.5 -114l141 5q51 0 52 -33q0 -29 -60.5 -40t-152 -44t-134.5 -57.5t-61 -24.5q-45 0 -45 135l2 143 q0 78 188.5 180.5t424 179.5t335.5 77q127 0 204 -68.5t77 -181.5q0 -152 -149.5 -310.5t-353.5 -296t-374 -247.5q305 -61 379 -72.5t178 -11.5q29 0 67 4t116 16q-45 -115 -91 -227q-43 -68 -178 -68q-104 0 -286.5 32t-339.5 58l-207 29q-84 -59 -113 -73.5t-59 -14.5 q-47 0 -47 41z" />
<glyph unicode="R" horiz-adv-x="1519" d="M-14 -47q0 57 104.5 215t120.5 184q-94 29 -94 80q0 78 84 133.5t227 69.5l303 434q-168 -29 -248 -50.5t-186 -60.5q59 0 112.5 -6t53.5 -28q0 -16 -39 -23q-57 0 -177 -17.5t-163 -17.5q-76 0 -76 54q0 63 54.5 160.5t159 157.5t356 100t503.5 40q264 0 411.5 -69.5 t147.5 -196.5q0 -33 -15 -86t-60 -152.5t-200 -169t-534 -135.5l-278 -47l-68 -12q289 -86 428.5 -133t282.5 -102.5t175 -101.5t32 -148q0 -90 -51 -91q-35 0 -74 15.5t-195.5 82t-299 119t-425.5 148.5l-174 -250l2 -20q0 -47 -54 -87t-103 -40q-18 0 -30.5 14t-12.5 37z M623 682q319 70 510.5 127t304.5 166q43 46 43 69q0 37 -64.5 53.5t-214.5 16.5q-70 0 -172 -10t-182 -19q-6 -53 -14.5 -76.5t-45.5 -78.5z" />
<glyph unicode="S" horiz-adv-x="1394" d="M-74 84q0 49 50.5 117.5t125 96.5t103.5 28q16 0 16 -17q0 -18 -24.5 -34.5t-44.5 -28.5l139 -4q213 0 387 31.5t280.5 89t106.5 90.5t-93 73.5t-216 63.5l-338 61q-115 20 -162 61.5t-47 118.5q0 61 18.5 134t75.5 166.5t348 177.5t506 84q174 0 239.5 -22t65.5 -79 q0 -102 -32.5 -146t-102.5 -69.5t-165 -81t-103 -55.5q-33 0 -33 29q0 16 25 39l123 108q-164 0 -306.5 -29.5t-234.5 -72.5t-150.5 -82t-58.5 -70q0 -25 41 -45t139 -43l215 -47q174 -39 306 -104.5t132 -188.5q0 -217 -277.5 -340t-770.5 -123q-137 0 -210 29t-73 84z" />
<glyph unicode="T" horiz-adv-x="1234" d="M4 915l12 70q20 94 43 189q25 47 146 103t311.5 89t401.5 33q344 0 378.5 -35t45 -52.5t25.5 -55t27.5 -73.5t12.5 -46q0 -55 -90 -181.5t-169 -239t-157 -231t-145 -235.5l18 4q31 0 31 -33q0 -57 -110.5 -181t-163.5 -124q-47 0 -74 24.5t-27 65.5q0 125 148.5 342 t347.5 469l180 225l41 54q-276 0 -507.5 -38t-516.5 -122q80 -14 121 -26t41 -38q0 -20 -31 -20q-23 0 -70 6t-69 6l-92 -2q-109 0 -109 53z" />
<glyph unicode="U" horiz-adv-x="1765" d="M8 805q0 45 27.5 100.5t89 139t92.5 114.5t113 77t317.5 108.5t362.5 62.5q61 0 96 -41t35 -115q0 -72 -39 -141.5t-187.5 -234t-287 -341t-138.5 -215.5q0 -33 41 -32q61 0 293 195.5t457 413.5t306 306t124 88q37 0 59.5 -37t22.5 -94t-143.5 -249.5t-286.5 -393.5 t-143 -289q0 -35 18 -57.5t49 -22.5q82 0 179.5 67t236.5 185l4 -37l4 -26q0 -61 -230.5 -219t-349.5 -158q-61 0 -108 45t-47 107q0 152 106.5 319.5t173.5 271.5q-127 -121 -291.5 -275.5t-341 -294.5t-241.5 -140q-70 0 -125 59.5t-55 138.5q0 109 101 242t259 307 l240 262q37 47 37 60q0 23 -21 22q-33 0 -231.5 -100t-326.5 -159.5t-202 -59.5q-49 0 -49 41z" />
<glyph unicode="V" horiz-adv-x="1290" d="M0 719q0 47 14.5 101t59.5 133t251.5 181.5t354.5 159.5l194 78q61 25 95 25q51 0 93 -58.5t42 -109.5q0 -31 -154.5 -270.5t-262 -430t-107.5 -299.5q0 -33 16 -57.5t37 -24.5q18 0 50 28t189.5 204t344.5 510l-7 37q0 37 39 109.5t95.5 138t93.5 65.5q49 0 49 -57 q0 -104 -183.5 -412.5t-396.5 -573t-299 -264.5q-84 0 -156.5 92.5t-72.5 184.5q0 80 39 180t133 266l190 330l66 119q-246 -119 -321.5 -163t-209.5 -153l154 8q43 0 43 -20q0 -16 -16.5 -24.5t-82 -20.5t-144 -39.5t-120.5 -50.5t-61 -23q-49 0 -49 101z" />
<glyph unicode="W" horiz-adv-x="1921" d="M10 897q0 162 105 268q139 106 188 152.5t68 46.5q16 0 16 -16q0 -12 -21.5 -39t-46.5 -54q207 74 306.5 104t214.5 30q225 0 225 -265q0 -111 -150.5 -290t-299 -359t-148.5 -190q0 -31 27 -31q12 0 33.5 17.5t131 110.5t209 188.5t285.5 302t245.5 269t107.5 98.5 t81 36q35 0 58.5 -56.5t23.5 -74.5q0 -27 -166 -266.5t-265 -400.5t-99 -240q0 -33 32 -33q20 0 52 22.5t156 127t245 266t219 360.5q-14 45 -14 74q0 45 66.5 128t89.5 83t41 -34t18 -77q0 -96 -73 -279.5t-179 -346t-253.5 -312t-238 -198t-120.5 -48.5q-70 0 -144.5 63.5 t-74.5 139.5q0 66 21.5 138.5t102.5 285.5q-156 -168 -220 -234.5t-135 -132t-166 -148.5t-125.5 -99.5t-63.5 -16.5q-61 0 -118.5 87t-57.5 153q0 92 144 260t273 307l195 209q43 47 43 80q0 55 -59 55q-70 0 -221.5 -54t-233.5 -98t-160 -85t-123 -41q-47 0 -47 57z" />
<glyph unicode="X" horiz-adv-x="1378" d="M6 846q0 45 40 127t101.5 158.5t331 163.5t439.5 87q74 0 106.5 -26.5t32.5 -91.5l-6 -68l-31 -264l352 328q51 45 80 45q37 0 37 -39q0 -68 -55.5 -145t-120.5 -77l-309 -292l-48 -482l-4 -57q0 -55 54 -55q39 0 72.5 18.5t168.5 114.5l37 -53q-104 -115 -224 -206 t-220 -91q-61 0 -87 42t-26 142v53l23 330l-232 -219q-104 -96 -239.5 -216t-190.5 -120q-20 0 -35.5 17.5t-15.5 39.5q0 84 91 168t131 107.5t116 50.5l389 366l27 457q-242 -80 -340.5 -115.5t-225.5 -105.5h84q63 -6 64 -27q0 -14 -42 -26.5t-139.5 -43t-154.5 -30.5 q-31 0 -31 35z" />
<glyph unicode="Y" horiz-adv-x="1472" d="M6 772l12 53q18 63 37 129q31 84 143.5 148.5t247 132.5t273.5 117t235 49q61 0 100.5 -31t39.5 -80t-41 -117.5t-160 -214.5l-248 -313q-106 -133 -134 -170t-28 -61q0 -31 31 -31q53 0 201.5 117.5t339 294t261 246t105.5 69.5t62.5 -43t27.5 -82q0 -18 -14 -44 t-93 -128t-184.5 -244.5t-225.5 -319.5t-120 -212q0 -16 13 -17q131 78 241.5 136.5t171.5 58.5q47 0 48 -25q0 -27 -43 -62.5t-78 -66.5l-246 -192l-238 -219q-68 -76 -100.5 -104.5t-87.5 -28.5q-37 0 -61.5 26.5t-24.5 67.5q0 96 123 304t254 389t276 368l-305 -262 q-123 -106 -282.5 -238.5t-239.5 -132.5q-49 0 -90 41t-41 90q0 63 94 201.5t211 283t203 248t106.5 133t20.5 45.5q0 6 -7.5 18.5t-17.5 12.5q-12 0 -195.5 -97t-317.5 -171t-169 -92.5t-53 -18.5q-12 0 -22.5 12.5t-10.5 26.5z" />
<glyph unicode="Z" horiz-adv-x="1277" d="M-4 -328q0 14 15.5 47t66.5 112t188 183.5t285.5 186.5t327.5 164q0 59 -29 83.5t-98 24.5q-80 0 -249 -75.5t-341 -153.5q-33 0 -33 30q0 23 17.5 63t32 89t49 86t252.5 136.5t325.5 155.5t197 116.5t89.5 107.5q0 49 -58 49q-137 0 -316 -63.5t-365.5 -161.5 t-332.5 -190q0 98 7.5 153t62.5 191.5t363.5 265.5t554.5 129q147 0 229 -65.5t82 -184.5q0 -199 -266 -354q-176 -90 -246 -127q139 -29 186 -72t70 -164q41 14 67.5 21.5t53.5 7.5t26 -25q0 -35 -61 -57l-86 -33q-25 -104 -46.5 -152.5t-105.5 -171t-263 -251.5 t-314 -178.5t-168 -49.5q-47 0 -108.5 42t-61.5 85zM221 -252q4 -18 29 -18q37 0 128 52t190.5 129t163 153t116.5 180q-145 -76 -217 -123t-163 -120t-169 -147.5t-78 -105.5z" />
<glyph unicode="[" horiz-adv-x="798" d="M39 -201q0 27 33.5 120t133 391t164 501t118 369t84 205.5t75.5 39.5q53 0 173 -10t161 -10l8 2q47 0 47 -31q0 -47 -39 -84t-90 -37l-170 -4q-14 -20 -33.5 -57t-74 -209t-97.5 -305t-114.5 -352t-136.5 -408q51 0 133 5t94 5q47 0 47 -16l-10 -27l-17 -37 q-18 -45 -42.5 -61t-71.5 -16l-168 4q-25 0 -76 -4t-78 -4q-53 0 -53 30z" />
<glyph unicode="\" horiz-adv-x="856" d="M291 1395q0 47 24.5 89t69.5 42q20 -6 45 -70.5t34 -129t74.5 -326t111.5 -552t46 -468.5q0 -193 -133 -193q-59 0 -59 55l4 111q0 207 -25.5 416t-69.5 431t-79 369.5t-39 173t-4 52.5z" />
<glyph unicode="]" horiz-adv-x="798" d="M-150 -203q0 47 39 84t91 37l167 4q29 43 41.5 67.5t64.5 189.5t147.5 459t203.5 617q-37 0 -112.5 -6t-114.5 -6q-45 0 -45 17q4 20 17 46.5t31.5 61.5t90.5 35l170 -6q25 0 86 4t66 4q53 0 53 -31t-54.5 -188.5t-95.5 -278.5l-319 -977q-33 -102 -62.5 -142t-76.5 -40 q-53 0 -173 10.5t-161 10.5q-53 0 -54 28z" />
<glyph unicode="^" horiz-adv-x="1026" d="M141 729l353 643h241l355 -643h-199l-277 498l-276 -498h-197z" />
<glyph unicode="_" horiz-adv-x="1026" d="M-322 -121h1024v-168h-1024v168z" />
<glyph unicode="`" horiz-adv-x="1026" d="M479 1022q0 29 10.5 57.5t19.5 58t30 29.5q14 0 52 -81.5t145.5 -146t107.5 -87.5l-19 -35q-2 -2 -7 -3t-11 -3q-25 0 -89.5 33t-135.5 69q-102 61 -103 109z" />
<glyph unicode="a" horiz-adv-x="1028" d="M2 233v42t4 47q43 143 317.5 288.5t440.5 145.5q78 0 119 -72l8 -22q0 -23 -29 -37q-35 -12 -43 -17q57 -25 58 -78q0 -27 -91.5 -143.5t-91.5 -163.5q0 -27 18.5 -43t49.5 -16q39 0 77.5 22.5t194.5 135.5l-4 -62l2 -27q-106 -86 -235 -185t-205 -99q-35 0 -60.5 31.5 t-25.5 68.5q0 45 16.5 93t61.5 145q-100 -84 -228.5 -186.5t-179.5 -102.5q-61 0 -111.5 82t-62.5 153zM158 201q0 -45 32 -45q70 0 246 152.5t260 250.5q-125 -35 -225 -75t-184 -93t-106.5 -90t-22.5 -100z" />
<glyph unicode="b" horiz-adv-x="806" d="M2 233q0 209 88 395.5t216 330t299 280.5t251 137q25 0 43.5 -20t18.5 -53l-9 -43q-49 -145 -172 -300t-278.5 -305.5t-292.5 -281.5q-10 -41 -10 -70q0 -63 24.5 -100t67.5 -37q35 0 72.5 29.5t66.5 74.5q-29 37 -29 66q0 96 97.5 207.5t191.5 111.5q27 0 42.5 -19.5 t15.5 -53.5q0 -121 -152 -334q23 -20 51 -21q39 0 81 18.5t126 76.5l-2 -89q-78 -51 -137.5 -73.5t-118.5 -22.5l-94 10q-179 -167 -304 -167h-1q-72 0 -112 61t-40 192zM231 582q168 145 298.5 298.5t220.5 327.5q-172 -150 -294 -295t-225 -331z" />
<glyph unicode="c" horiz-adv-x="739" d="M2 260q0 49 5 87t40 114t229.5 196.5t321.5 120.5q84 0 84 -92q0 -66 -78 -167t-133 -101q-61 0 -74 88q-76 -53 -151 -107q-102 -80 -103 -141q0 -43 46.5 -78t105.5 -35q115 0 221 46.5t227 130.5l-2 -91q-174 -131 -283.5 -194.5t-236.5 -63.5q-106 0 -162.5 87 t-56.5 200z" />
<glyph unicode="d" horiz-adv-x="1021" d="M2 233q0 170 108.5 277.5t263 167t199.5 59.5q25 0 40.5 -9t50.5 -48q139 266 223 401.5t168 135.5q31 0 51 -22.5t20 -57.5q0 -68 -117.5 -239t-235.5 -350t-118 -284q0 -112 67 -112h1q31 0 96.5 35.5t210.5 134.5q-2 -23 -3 -39.5t-1 -26.5v-23q-102 -80 -205 -157 q-137 -94 -233 -94q-109 0 -109 153q0 76 19 144q-82 -76 -186.5 -166t-164.5 -90q-49 0 -92 63.5t-53 146.5zM168 250q0 -43 33 -43q18 0 113.5 66.5t164 134t113.5 155.5q-217 -78 -320.5 -134t-103.5 -179z" />
<glyph unicode="e" horiz-adv-x="735" d="M2 233q0 219 172 380t389 161q127 0 127 -94q0 -137 -144.5 -224t-342.5 -155l-4 -45q0 -49 34.5 -77.5t94.5 -28.5q100 0 196 45t217 127l-4 -89q-217 -162 -313 -210t-188 -48q-233 0 -234 258zM223 399q119 49 208 118t89 114q0 25 -24 24q-63 0 -146.5 -76.5 t-126.5 -179.5z" />
<glyph unicode="f" horiz-adv-x="708" d="M-94 -285q0 80 17.5 133.5t127.5 296.5q-39 47 -44 55.5t-5 32.5q0 121 123 180.5t260 308.5t239.5 389t155.5 140q20 0 32.5 -20t12.5 -53q0 -76 -24.5 -146.5t-100 -181.5t-172 -240t-192.5 -260q39 -27 58.5 -62.5t43.5 -97.5q53 10 115.5 39t159.5 93l-4 -62l2 -27 q-119 -86 -238 -139l6 -76q0 -111 -71.5 -231.5t-156.5 -175.5t-145.5 -84t-82.5 -29q-47 0 -82 65.5t-35 151.5zM86 -190q0 -70 37 -146q104 74 149 167t45 224l-41 -2q-35 0 -96 19q-94 -160 -94 -262z" />
<glyph unicode="g" horiz-adv-x="915" d="M-14 -459q0 96 134 228.5t288 250.5l143 281q-109 -102 -216.5 -181t-191.5 -79q-55 0 -94 53t-47 139q0 162 104.5 269.5t231.5 169t177 78t93 16.5t71 -13.5t28 -33.5q0 -55 -118 -117.5t-235.5 -124t-162 -107.5t-44.5 -134l3 -25l45 -6q100 0 217.5 110.5t203.5 215 t115 104.5t52.5 -36t23.5 -67q0 -14 -6 -31.5t-25 -51.5l-166 -310q66 37 131.5 75t180.5 108l-4 -62l2 -27l-197 -131l-219 -143q-164 -252 -275.5 -359.5t-201.5 -107.5q-41 0 -41 49z" />
<glyph unicode="h" horiz-adv-x="905" d="M2 233q0 172 88 301.5t218 297t304 328.5t238 161q27 0 51.5 -15t24.5 -42q0 -63 -150.5 -246.5t-320.5 -362t-314 -321.5l-2 -80q86 72 200 166t220.5 164.5t163.5 70.5q35 0 66.5 -29.5t31.5 -64.5q0 -47 -113.5 -164.5t-113.5 -163.5q0 -47 47 -47q43 0 100.5 29 t167.5 107l-2 -89q-180 -137 -280.5 -195t-159.5 -58q-35 0 -61.5 30.5t-26.5 71.5q0 94 94 221t121 164q-252 -178 -374 -314.5t-146 -136.5q-39 0 -55.5 47.5t-16.5 169.5z" />
<glyph unicode="i" horiz-adv-x="593" d="M2 231q0 162 123 321t272 159q25 0 51.5 -12.5t26.5 -45.5q0 -61 -113.5 -170.5t-175.5 -167.5q-14 -31 -14 -51q0 -96 119 -96q55 0 119.5 32t187.5 122l-2 -91q-98 -76 -195 -149q-137 -96 -217 -96q-84 0 -133 63.5t-49 181.5zM416 842q0 59 58 107t118 48h2 q65 0 65 -67q0 -61 -49 -120.5t-108 -59.5q-37 0 -61.5 25.5t-24.5 66.5z" />
<glyph unicode="j" horiz-adv-x="587" d="M-264 -379q0 115 71.5 195t245.5 229q102 182 148.5 268t115.5 232q-152 -76 -303 -150q18 84 37 149.5t106 114t152.5 81t120.5 32.5q41 0 64.5 -17.5t23.5 -45.5q0 -74 -128 -300.5t-148 -277.5q119 57 174 88t178 103l-4 -89q-139 -88 -210 -126.5t-216 -110.5 q-160 -252 -227.5 -346t-143.5 -94q-57 0 -57 65zM377 918q0 57 58.5 107t117.5 50h2q66 0 66 -69q0 -59 -48.5 -119t-107.5 -60q-39 0 -63.5 25t-24.5 66z" />
<glyph unicode="k" horiz-adv-x="995" d="M2 231q0 129 107.5 308.5t304 378t346 299t186.5 100.5q18 0 32.5 -14.5t14.5 -34.5q0 -66 -170 -254.5t-357 -369.5t-335 -320l-4 -56q264 227 439 349t239 122q49 0 84 -43t35 -102q0 -72 -45 -129t-152 -121l-219 -123q33 -51 61.5 -71.5t65.5 -20.5q59 0 115 28.5 t251 161.5q-2 -23 -3 -39t-1 -26v-23q-106 -86 -213 -172q-149 -108 -239 -108h-2q-88 0 -139.5 57.5t-145.5 196.5q-39 -39 -58.5 -64.5t-52 -80t-67.5 -54.5q-78 0 -78 225zM375 324q41 -16 78 -45q119 70 196.5 137t77.5 98q0 23 -20 23q-51 0 -161 -76t-171 -137z" />
<glyph unicode="l" horiz-adv-x="622" d="M2 231q0 168 62.5 322t156.5 284t245.5 277.5t203.5 147.5q18 0 31.5 -17.5t13.5 -44.5q-2 -74 -19.5 -135t-48.5 -138t-104.5 -171t-165.5 -187.5t-176 -175.5l-11 -100q0 -131 115 -131q61 0 132 34.5t192 125.5l-4 -62l2 -29q-162 -121 -259.5 -183t-181.5 -62 q-90 0 -137 59t-47 186zM244 580q113 117 189.5 217t127.5 223q-113 -94 -173 -183t-144 -257z" />
<glyph unicode="m" horiz-adv-x="1456" d="M2 233q0 141 107.5 300t242.5 159q84 0 84 -47q0 -35 -125 -160t-125 -188q0 -10 3.5 -16.5t9.5 -8.5q14 0 157.5 146.5t265 247t205.5 100.5t84 -92q0 -57 -66.5 -155.5t-123.5 -180.5l336 260q82 66 140 106.5t73 40.5q8 0 27.5 -26.5t37 -60t17.5 -48.5 q0 -41 -119 -166t-119 -198q0 -53 72 -53q43 0 102 27.5t174 101.5q-2 -23 -3 -39.5t-1 -26.5v-23q-145 -102 -273 -180t-204 -78q-41 0 -72.5 34t-31.5 81q0 53 27.5 111.5t131.5 222.5q-45 -35 -94 -74t-88 -76q-98 -106 -186 -189t-158 -83q-35 0 -57.5 24.5t-22.5 65.5 q0 76 63.5 170t87 128t33 48.5t9.5 24.5q0 6 -7 12q-4 0 -6 2q-31 0 -138 -113.5t-178 -202.5t-105.5 -120t-67.5 -31q-51 0 -85 59.5t-34 163.5z" />
<glyph unicode="n" horiz-adv-x="956" d="M2 231v29q0 115 108.5 267.5t204.5 152.5q66 0 90.5 -8t24.5 -33q0 -43 -128 -167t-128 -165q0 -25 21 -24q14 0 22 7t54 63.5t270.5 232.5t285.5 176q25 0 35 -39t21.5 -76t11.5 -43q-84 -100 -166 -198.5t-82 -159.5q0 -53 60 -53q41 0 100.5 29.5t155.5 99.5l-5 -62 l3 -29q-186 -141 -270.5 -196t-170.5 -55q-45 0 -76.5 37.5t-31.5 91.5q0 88 66.5 189t109.5 165q-94 -74 -169 -144.5t-141.5 -154.5t-103.5 -115t-68 -31q-57 0 -80.5 46.5t-23.5 166.5z" />
<glyph unicode="o" horiz-adv-x="815" d="M2 231q0 106 26.5 187.5t109.5 160t201 132t226 53.5q47 0 79 -20.5t32 -51.5q0 -33 -47 -55q41 -14 56 -39t15 -76q0 -100 -98 -270l41 -2q43 0 79 14.5t99 57.5q-2 -16 -3 -32t-1 -36v-23q-78 -53 -131 -74.5t-106 -21.5l-60 4q-159 -151 -299 -151h-2 q-88 0 -145.5 63.5t-71.5 179.5zM154 209q0 -61 73 -62q49 0 84 14.5t82 55.5q-22 47 -22 88q0 48 19.5 98t72.5 142q-154 -82 -231.5 -149.5t-77.5 -186.5z" />
<glyph unicode="p" horiz-adv-x="985" d="M-197 -336q0 102 68 216t197 286t170 252q-59 -51 -128 -102.5t-108 -82.5l-2 27l4 62q143 102 200.5 172.5t155 218t160 211t113.5 63.5q41 0 66.5 -13t25.5 -34q0 -23 -22.5 -51.5t-99.5 -108.5t-106.5 -121t-82.5 -137q104 72 215.5 133.5t177.5 61.5q41 0 67.5 -26.5 t26.5 -69.5q0 -102 -95 -212t-243 -243l55 -4q68 0 156 38t215 122l-4 -89q-188 -131 -287.5 -185t-230.5 -54q-39 0 -68.5 8t-76.5 33q-59 -12 -93 -12q-25 0 -84 12l-108 -211q-80 -158 -110.5 -201t-63.5 -43q-27 0 -43.5 22.5t-16.5 61.5zM287 229q47 0 87 -4t81 -16 q88 90 142 163.5t54 100.5q0 33 -24 33l-27 -10q-109 -53 -171 -108.5t-142 -158.5z" />
<glyph unicode="q" horiz-adv-x="923" d="M2 233q0 113 54.5 189t166 158t261 133t278.5 51q39 0 63.5 -18.5t24.5 -51.5q0 -16 -35 -51q49 -23 49 -72q0 -63 -98 -183t-152 -183l50 -8q41 0 93 24.5t173 100.5l-4 -89q-57 -43 -104.5 -74.5t-114.5 -74.5q0 -109 -50.5 -202t-126 -170t-194.5 -166t-172 -89 q-41 0 -61.5 46t-20.5 91q0 51 69.5 148.5t77.5 110.5l174 223l203 278q-109 -98 -246 -217t-210 -119q-53 0 -100.5 67t-47.5 148zM139 197q121 14 255.5 100t322.5 303q-143 -41 -219 -71.5t-172.5 -87t-136 -102.5t-50.5 -142zM264 -346q102 51 202.5 147.5t100.5 188.5 l-2 43l-24 -2l-52 6q-70 -86 -135 -192.5t-90 -190.5z" />
<glyph unicode="r" horiz-adv-x="798" d="M2 231v42.5t4 48.5q47 37 63.5 52t51.5 54q-51 8 -51 57q0 86 96 190.5t158 104.5q16 0 28.5 -12t12.5 -31q0 -6 -4.5 -19t-10.5 -28l250 33l31 4q35 0 61.5 -38t26.5 -87q0 -45 -120 -158.5t-120 -197.5q0 -57 58 -58q41 0 88 24t178 110l-2 -91q-96 -76 -191 -149 q-133 -96 -211 -96q-57 0 -96 43t-39 108q0 90 46 162t147 188l-230 -49q-51 -55 -101 -101t-124 -106z" />
<glyph unicode="s" horiz-adv-x="796" d="M2 231v42.5t4 48.5q139 104 222 173.5t178 168.5q20 88 48.5 120.5t84.5 32.5q37 0 50 -15.5t17 -58.5q0 -39 22.5 -114.5t22.5 -116.5q0 -137 -89 -220t-183 -151l55 -4q74 0 130.5 28t238.5 157l-4 -62l2 -29l-230 -168q-141 -92 -268 -92q-109 0 -192.5 55.5 t-83.5 131.5q0 43 30.5 71.5t77.5 28.5q37 0 71 -17.5t79 -54.5q145 86 145 232q0 39 -4 73.5t-10 83.5q-119 -109 -210 -184.5t-204 -159.5z" />
<glyph unicode="t" horiz-adv-x="684" d="M2 233v42t4 47q131 100 171 140t112 142l-60 2q-39 0 -74.5 -6t-60.5 -10q90 143 136 197.5t231 54.5q78 117 117.5 148.5t103.5 31.5q68 0 68 -41q0 -18 -28 -57t-52 -72q47 0 72.5 -4t50.5 -8l-43 -76q-51 -94 -84 -131t-205 -37q-90 -117 -140.5 -217t-50.5 -160 q0 -90 64 -90q57 0 126.5 42t229.5 151q-2 -23 -3 -39.5t-1 -26.5v-23q-86 -68 -235.5 -180t-274.5 -112q-57 0 -91 37.5t-34 99.5q0 98 86 260q-33 -29 -49 -41t-86 -64z" />
<glyph unicode="u" horiz-adv-x="993" d="M2 231q0 164 83 270.5t149.5 159t138.5 52.5q110 0 110 -44q0 -30 -78.5 -114t-136 -125t-89.5 -77t-32 -107q0 -35 21 -35q16 0 34.5 10t69 35t190.5 152t266 242.5t167 115.5q51 0 51 -115q0 -35 -147.5 -186.5t-147.5 -245.5q0 -61 72 -61q55 0 141 62t135 99l-4 -59 l2 -29q-133 -113 -243.5 -196.5t-202.5 -83.5q-49 0 -82 39t-33 96q0 29 10.5 61.5t34.5 108.5q-76 -78 -149 -154q-104 -94 -182 -94q-147 0 -148 223z" />
<glyph unicode="v" horiz-adv-x="872" d="M2 231q0 86 18.5 166t59.5 149.5t113.5 143.5t128.5 74q57 0 90.5 -12.5t33.5 -34.5q0 -68 -71.5 -151t-194.5 -206q-35 -94 -35 -124q0 -68 50 -68q31 0 113.5 57.5t150.5 126.5q0 102 112.5 254t184.5 152q65 0 65 -68q0 -63 -51 -152t-121 -190q31 -72 94 -72 q39 0 65 8.5t71 37.5l-5 -62l3 -29q-115 -71 -189 -71h-2q-39 0 -64.5 12t-80.5 57q-96 -96 -189.5 -169.5t-161.5 -73.5q-63 0 -118.5 71.5t-69.5 173.5z" />
<glyph unicode="w" horiz-adv-x="1296" d="M2 231q0 88 23.5 162t96.5 160t150.5 158.5t143.5 72.5q55 0 90 -16t35 -45q0 -86 -137.5 -206t-210.5 -183q-16 -57 -20.5 -75.5t-4.5 -37.5q0 -14 8 -26.5t21 -12.5q12 0 153.5 96.5t264 250t149.5 178t43 24.5l27 -6q18 -8 41.5 -17.5t23.5 -27.5 q-90 -152 -159.5 -279t-69.5 -190q0 -20 10 -32.5t29 -12.5q29 0 78 44t114 109l-6 48q0 90 111.5 216t160.5 126q66 0 66 -101q0 -72 -32 -127t-105 -157q43 -45 90 -45q43 0 117 43l-5 -62l2 -29q-59 -33 -103 -47t-87 -14q-37 0 -61.5 8t-65.5 37q-104 -96 -196.5 -171 t-161.5 -75q-49 0 -81 44t-32 112l8 115q-90 -98 -165.5 -171t-149.5 -73q-80 0 -136.5 65.5t-66.5 169.5z" />
<glyph unicode="x" horiz-adv-x="735" d="M-35 41q0 27 57.5 97.5t120.5 88.5l105 95v241q-76 -45 -123 -70.5t-62 -25.5q-10 0 -18 8t-8 19q0 37 160.5 167t195.5 130q29 0 38 -24t9 -56l-8 -209l195 182q20 18 46.5 34.5t41.5 16.5q35 0 35 -33q0 -37 -30 -84t-66 -75.5t-87 -28.5l-141 -139l-4 -86 q0 -104 70 -105q61 0 98 24.5t149 113.5l-4 -62l2 -27l-92 -73l-162 -131q-76 -61 -141 -62q-53 0 -74.5 39t-21.5 131l2 72q-59 -57 -134 -128t-114 -71q-12 0 -23.5 9.5t-11.5 21.5z" />
<glyph unicode="y" horiz-adv-x="901" d="M2 233q0 106 39 194.5t112.5 166.5t139 127t92.5 49t57.5 -30.5t30.5 -59.5q0 -72 -118.5 -177.5t-194.5 -162.5q-20 -35 -26.5 -54.5t-12.5 -64.5q88 16 145 51q115 80 230.5 185.5t199.5 192.5t111 87q25 0 38 -43t13 -63q0 -53 -72 -152l-151 -223l-203 -311 q102 90 216 179t259 198l-4 -62l2 -27q-133 -104 -249.5 -210.5t-190.5 -197.5t-143.5 -176t-102.5 -85t-46 44t-13 89q0 16 7 32.5t36 65.5l119 209q41 70 75.5 127t91.5 148q-158 -127 -235.5 -186.5t-108.5 -59.5q-49 0 -93 70.5t-50 129.5z" />
<glyph unicode="z" horiz-adv-x="757" d="M-125 -393q0 127 138.5 243.5t308.5 204.5q0 104 -99.5 135t-99.5 56q0 18 33.5 50t113.5 86t124 89t98 86l-230 -41q-43 -84 -82 -127t-178 -158l-2 29l4 62q59 47 97 87t69 93q-45 0 -69.5 9t-24.5 46q0 53 87 134t132 81t53 -72q80 14 130 24.5t108 31.5l26 6 q20 0 44 -53.5t24 -104.5q0 -41 -62 -82l-260 -188q55 -51 77 -91t30 -108q74 41 135.5 79t161.5 108l-2 -91l-299 -188q-23 -86 -33 -115.5t-48 -102.5t-176 -193.5t-243 -120.5q-37 0 -61.5 26.5t-24.5 69.5zM-27 -391q127 43 219 134t125 214q-172 -125 -239.5 -187.5 t-79.5 -84t-25 -76.5z" />
<glyph unicode="{" horiz-adv-x="815" d="M27 567q0 20 4 32.5t29.5 63t50.5 62.5q45 10 176 41t154.5 218t102.5 291.5t227.5 154t301.5 49.5q74 0 74 -80q0 -12 -19.5 -40t-43 -68t-44.5 -40q-14 0 -27.5 17.5t-23.5 17.5q-16 0 -47 -10l-111 -27q-160 -35 -215 -86t-55 -172q0 -147 -32.5 -197.5t-172.5 -134.5 q86 -84 86 -137q0 -92 -127 -254t-127 -231q0 -47 121 -87t180 -40q4 0 9.5 7t23.5 7q27 0 37 -20l2 -8q0 -49 -71.5 -104.5t-131.5 -55.5q-72 0 -198.5 59.5t-126.5 122.5q0 109 118.5 310.5t118.5 209.5q0 33 -55 56.5t-139 23.5q-29 0 -39 10.5t-10 38.5z" />
<glyph unicode="|" horiz-adv-x="1026" d="M420 -342v1047v661h184v-1049v-659h-184z" />
<glyph unicode="}" horiz-adv-x="815" d="M-238 -184q0 18 43 82.5t64 64.5q20 0 31 -26q10 -6 16 -7l49 11q102 25 205 47q176 53 176 233q0 147 34 198.5t171 133.5q-88 86 -88 137q0 86 127 258t127 230q0 47 -115 87t-186 40q-18 -14 -31 -15q-12 0 -25.5 9.5t-13.5 19.5q0 18 36 67.5t71 65.5l34 14 q41 12 60 13q76 0 200.5 -59.5t124.5 -123.5q0 -111 -117.5 -310.5t-117.5 -211.5q0 -33 54 -56.5t140 -23.5q29 0 39.5 -10t10.5 -39q0 -25 -31 -86t-68 -78q-68 -14 -179 -39.5t-135 -208t-103.5 -291t-228 -157.5t-302.5 -49q-72 0 -72 80z" />
<glyph unicode="~" horiz-adv-x="1026" d="M492 432q57 117 118.5 183.5t163.5 66.5q80 0 219.5 -62.5t208.5 -62.5q55 0 91 26.5t81 102.5l109 -63q-57 -113 -128 -178.5t-179 -65.5q-63 0 -204 62.5t-200 62.5q-55 0 -94 -31t-80 -111z" />
<glyph unicode="&#xa1;" horiz-adv-x="790" d="M-23 -483q0 23 23 63l420 807q-16 16 -17 47q0 33 20.5 57.5t59.5 24.5q37 0 78 -39t41 -88q0 -17 -6 -35l-354 -821q-20 -45 -31.5 -67.5t-32.5 -22.5q-4 0 -49 8l-96 17q-55 14 -56 49zM467 709q8 96 47 137t96 41q39 0 65.5 -14.5t37 -40t10.5 -58.5q0 -20 -4 -45.5 t-10 -50.5q-20 -84 -56.5 -115t-72.5 -31q-55 0 -84 54.5t-29 122.5z" />
<glyph unicode="&#xa2;" horiz-adv-x="1140" d="M236 565q0 14 2 31.5t12 85.5t103 175.5t208 152.5q25 12 78 26.5t121 30.5q68 135 110.5 189.5t139.5 54.5q33 0 32 -25q0 -35 -35.5 -75t-48 -52t-21.5 -30.5t-19 -38.5q76 0 122.5 -27t46.5 -82q0 -26 -8 -51q-14 -45 -58 -81t-97 -36q-27 0 -27 18q0 14 21 43 l-111 -8q-29 -61 -63.5 -142t-53.5 -134q68 14 154 54t123 40q12 0 23 -26.5t11 -59.5q0 -27 -4 -47.5t-31.5 -68.5t-120.5 -81.5t-233 -60.5q-14 -70 -19 -102.5t-5 -65.5v-35q0 -27 -17 -26q-55 0 -88.5 29.5t-33.5 76.5t18 125q-129 14 -180 66.5t-51 156.5zM377 616 q0 -23 34.5 -35t123.5 -12q29 80 48 124t60 126q-188 -51 -218 -105.5t-39 -70.5t-9 -27z" />
<glyph unicode="&#xa3;" horiz-adv-x="1140" d="M-328 35q0 31 37 90t137 184q80 18 132.5 29.5t152.5 11.5l148 180q-49 6 -84 7q-27 0 -70 -5.5t-90 -9.5q49 82 80.5 103.5t107.5 21.5h43t53 2q37 0 52 -2l247 314q188 227 267.5 318t179 176t162.5 85q53 0 76.5 -27.5t23.5 -78.5q0 -100 -67.5 -238.5t-172.5 -318.5 q37 -8 37 -31q0 -39 -127 -141.5t-166 -102.5q-18 0 -34.5 18.5t-16.5 41.5q0 117 70 230.5t148.5 215.5t78.5 117q0 10 -20.5 8t-40 -25.5t-99 -110.5t-172 -198t-217.5 -278q84 -14 121 -42t37 -65q0 -41 -41 -41q-39 0 -121 20.5t-90 20.5l-135 -156l836 -184 q-68 -76 -134 -149q-86 -84 -172 -84q-37 0 -356 64.5t-453 64.5q-49 0 -151 -41t-145 -41q-20 0 -36 13t-16 34z" />
<glyph unicode="&#xa4;" horiz-adv-x="1083" d="M-98 201q0 41 101 123t159 108q-53 106 -53 223q0 221 190 379q-94 123 -94 162q0 37 39 78t57 41q31 0 38 -81t38 -149q123 66 262 66q96 0 186 -34t158 -95q25 43 123 127t143 84q16 0 35 -37q18 -45 25 -57q0 -20 -116 -80.5t-149 -93.5l-8 -7q76 -123 76 -247 q0 -74 -23.5 -141.5t-68.5 -139.5q6 -2 10 -6t6 -8q0 -12 -34.5 -45t-88.5 -68q43 -43 112 -81t69 -58q0 -29 -40 -44.5t-93 -15.5q-41 0 -130 154q-143 -59 -266 -59q-217 0 -358 166q-10 -10 -85 -124t-128 -114q-16 0 -54 29.5t-38 44.5zM270 635q0 -70 31 -139.5 t98.5 -109.5t159.5 -40q100 0 197 47q-18 37 -19 51q0 8 10.5 18.5t20.5 10.5t18.5 -10t28.5 -35q41 27 94.5 102.5t53.5 167.5q0 45 -13.5 88.5t-46.5 92.5q-39 59 -108.5 92t-151.5 33q-98 0 -190 -50q4 -6 12 -23.5t14 -29.5q0 -8 -11 -17.5t-19 -9.5q-10 0 -17.5 6.5 t-34.5 37.5q-61 -53 -94 -128t-33 -155z" />
<glyph unicode="&#xa5;" horiz-adv-x="1644" d="M63 936q0 43 28 104.5t54 87.5q49 33 290 118t488.5 153.5t350.5 68.5q53 0 93 -19t40 -52q0 -23 -48 -75t-143.5 -130t-281.5 -224.5t-256 -209.5q23 -14 51 -15q39 0 76 17.5t162 93.5l516 291q80 51 187.5 114.5t184.5 63.5q35 0 60 -15.5t37 -50.5q8 -20 -73 -101 t-258 -248t-218 -214l242 15q84 0 129 -19.5t45 -46.5q0 -47 -109 -47l-387 -31l-66 -82l242 17q66 0 117 -22.5t51 -47.5q0 -35 -102 -43l-371 -33l-162 -291q-25 -74 -78 -111.5t-110 -37.5q-41 0 -75 19.5t-44 50.5q-10 41 26.5 104.5t151.5 233.5q-37 -14 -146.5 -39 t-111.5 -25q27 78 90.5 119t247.5 74l49 65q-47 0 -99 -12t-126 -37q20 98 109.5 138t228.5 57q39 51 146.5 165.5t160.5 155.5l-532 -289q-74 -45 -162 -96t-145.5 -70.5t-91.5 -23.5t-60 -4q-68 0 -114 22.5t-46 57.5q0 23 21 49q86 98 232 219t262 204t165 125t49 56 q0 8 -16 8q-29 0 -127 -31l-549 -211q-84 -35 -138.5 -56t-88.5 -21q-31 0 -48 14z" />
<glyph unicode="&#xa6;" horiz-adv-x="856" d="M12 -84q0 76 61.5 219.5t150.5 302t194 324.5q37 16 63 16q53 0 90 -32.5t23 -55.5q-147 -250 -251.5 -461t-138.5 -326.5t-69 -115.5q-49 0 -86 39t-37 90zM553 944q0 27 12 47l228 344q113 188 163 189q33 0 46.5 -35t13.5 -80q0 -39 -14.5 -71.5t-92.5 -147.5 t-204 -318q-35 -6 -60 -6q-51 0 -71.5 21.5t-20.5 56.5z" />
<glyph unicode="&#xa7;" horiz-adv-x="1175" d="M-96 -211q0 55 62.5 136t160.5 81q6 0 10 -4t6 -8q0 -14 -20.5 -28.5t-36.5 -26.5q98 -27 225 -27q168 0 299 44t131 112q0 41 -218 126t-335.5 145t-117.5 153q0 45 97 150.5t200 137.5q-92 53 -118 79t-26 69q0 236 187.5 356.5t472.5 120.5q299 0 299 -80 q0 -72 -18.5 -115t-52.5 -69.5t-68.5 -38.5t-55 -21.5t-68 -43t-65.5 -33.5q-23 0 -23 26q0 18 17 31l106 98q-166 0 -252 -15.5t-152.5 -46t-105.5 -48.5q-57 -33 -57 -70q0 -27 44 -63.5t203 -99t286 -159t127 -219.5q0 -156 -224 -213q53 -43 70.5 -74.5t17.5 -82.5 q0 -180 -201.5 -286t-531.5 -106q-131 0 -202.5 30t-71.5 83zM248 539q0 -39 154.5 -109t306.5 -135q174 52 174 154q0 61 -93.5 112t-283.5 137q-100 -23 -179 -71.5t-79 -87.5z" />
<glyph unicode="&#xa8;" horiz-adv-x="1081" d="M270 1006q0 29 21 75q18 35 54 66t91 31q98 -14 99 -86q-1 -33 -19 -76q-23 -43 -43 -65.5t-70 -22.5q-25 0 -53 8t-54 19.5t-26 50.5zM662 1012q0 16 16 53q20 61 57 87t88 26t75 -25t24 -63q-1 -39 -19 -74q-10 -33 -37.5 -60.5t-64.5 -27.5q-25 0 -58.5 12t-57 25.5 t-23.5 46.5z" />
<glyph unicode="&#xa9;" horiz-adv-x="1611" d="M133 913q0 248 189.5 458t492.5 210q279 0 479.5 -204.5t200.5 -491.5q0 -311 -197.5 -477t-496.5 -166q-274 0 -471 159.5t-197 511.5zM272 899q0 -203 163 -372t380 -169q182 0 362.5 133.5t180.5 391.5q0 217 -171 396t-372 179q-279 0 -411 -166t-132 -393zM438 735 q0 74 63.5 166t156 164t204 130t182.5 58q97 1 97 -75q0 -86 -140.5 -210t-220.5 -124q-51 0 -51 39q0 29 35 53l82 63l31 23q4 4 16 8l12 -12l-2 -8q66 49 111 97t45 73q0 18 -23 18q-27 0 -75 -23.5t-129.5 -83t-169 -156.5t-87.5 -179q0 -41 26 -65.5t69 -24.5 q92 0 191.5 53t234.5 147v-16q0 -20 -28 -46t-163 -123t-289 -97q-82 0 -130 40t-48 111z" />
<glyph unicode="&#xaa;" horiz-adv-x="759" d="M78 612q10 14 27.5 23.5t41 31t95.5 21.5l387 14l63 3l70 2q47 -1 47 -19q0 -59 -59.5 -71.5t-147.5 -12.5q-74 0 -223.5 -8t-222.5 -8l-58 4q-20 6 -20 20zM236 1022l2 43q33 109 232.5 211t324.5 102q39 0 69.5 -21.5t30.5 -53.5q0 -18 -41 -37q33 -18 33 -54 q0 -35 -65.5 -106.5t-65.5 -112.5q0 -35 43 -35q31 0 69 24.5t136 94.5l-5 -80q-76 -61 -151 -123q-115 -84 -174 -83q-27 0 -47.5 24.5t-20.5 52.5q0 55 43 148q-66 -57 -146.5 -123t-131.5 -66q-53 0 -94 74t-41 121zM365 977q0 -25 16 -25q53 0 168 96.5t178 170.5 q-94 -25 -156.5 -51.5t-118 -60.5t-71.5 -59.5t-16 -70.5z" />
<glyph unicode="&#xab;" horiz-adv-x="774" d="M63 516q0 23 106.5 188.5t121.5 215.5q33 -35 56.5 -84.5t23.5 -77.5q8 -31 -67 -125t-79 -117q-6 -41 99.5 -82t105.5 -98q0 -18 -10 -45q-20 -49 -72 -49q-78 0 -181.5 103.5t-103.5 170.5zM403 516q0 23 104.5 183.5t121.5 220.5q33 -33 56.5 -84.5t23.5 -77.5 q8 -31 -66 -125t-78 -117q-6 -41 98.5 -83t104.5 -97q0 -14 -10 -45q-20 -49 -70 -49q-78 0 -181.5 103.5t-103.5 170.5z" />
<glyph unicode="&#xac;" horiz-adv-x="5685" d="M410 291q0 102 51 259t98 220l131 180q20 25 29.5 37t13.5 25q-92 0 -138 42t-60 138q16 -4 29.5 -4h29.5q111 0 224.5 63.5t209.5 159.5q4 12 14 12q8 0 15.5 -24.5t7.5 -44.5q0 -160 -102 -240q-84 -55 -168 -108q-18 -35 -113.5 -167t-95.5 -233q0 -63 30.5 -158.5 t73.5 -95.5q68 0 230.5 113t293.5 205q57 135 102.5 245.5t92.5 168t68.5 77t58.5 19.5q23 0 40 -15.5t17 -40.5q0 -80 -65.5 -150.5t-157.5 -129.5q-14 -27 -40.5 -134.5t-26.5 -144.5q0 -47 64.5 -140t143.5 -198q53 254 289 537t533 487.5t549.5 257t440 79t398.5 26.5 q156 0 321 -14.5t403.5 -53.5t427 -275.5t188.5 -758.5q0 -293 -166 -429t-463 -136q-84 0 -187.5 27.5t-103.5 91.5q0 39 23.5 60t58.5 21q37 0 74 -20.5t55 -54.5q12 -31 45 -50.5t78 -29.5q231 0 351 124t120 376q6 59 6 126q0 301 -144.5 549t-469 290t-475 59.5 t-277.5 17.5q-113 0 -274.5 -25.5t-370.5 -59.5t-536.5 -257t-571.5 -518t-270 -527q43 -61 68.5 -133.5t25.5 -140.5q0 -47 -7.5 -76.5t-37.5 -29.5q-57 0 -90 98t-33 176v25q-125 102 -210 185t-92 141.5t-9 87t-2 65.5q0 39 6 69q-90 -78 -215 -171t-253 -163.5 t-210 -70.5q-37 0 -65.5 22.5t-28.5 59.5zM1761 102q16 53 99 54q25 0 63.5 -10.5t68 -44t19.5 -70.5q-12 -55 -100 -56q-25 0 -63 9.5t-67.5 44t-19.5 73.5zM2017 250q0 104 75 187t183 112l6 -19q-80 -31 -126 -70.5t-52 -117.5q0 -158 166 -214t373 -56 q299 0 443.5 108.5t177 155.5t32.5 102q0 86 -68.5 109.5t-170.5 23.5q-59 0 -166 -9t-117 -9q-152 0 -258.5 67.5t-106.5 215.5q0 211 187.5 331.5t413.5 120.5q78 0 116.5 -8t73.5 -49q16 8 33 8q23 0 54.5 -57.5t39.5 -60.5t8 -17q-8 -25 -60 -82t-59 -68q-6 -23 -20 -22 q-14 0 -42 25.5t-46.5 29.5t-38 11.5t-19.5 27.5q0 27 37 74t37 80q0 41 -38 57t-87 16q-166 0 -318.5 -85t-152.5 -240q0 -88 73 -119t173 -31q55 0 142 5t100 5q176 0 283.5 -34.5t107.5 -169.5q0 -121 -80 -231.5t-280.5 -263t-559.5 -152.5q-186 0 -327.5 72.5 t-141.5 240.5zM3211 111q14 51 88 51q27 0 66 -11.5t67.5 -41t18.5 -66.5q-12 -53 -94 -53q-23 0 -62 10t-66.5 42t-17.5 69zM3590 166q0 61 32 104t75 84q61 -76 96 -106.5t96 -30.5q166 0 291 266.5t125 454.5q0 111 -60.5 144.5t-173.5 33.5q-178 0 -194.5 -112.5 t-38.5 -124.5l-27 69q2 14 2 47q0 25 -1 50.5t-1 54.5q0 100 49.5 158.5t198.5 58.5q178 0 303 -27t125 -131q0 -125 -119.5 -404.5t-211 -439t-161 -245.5t-163.5 -86q-80 0 -161 52t-81 130z" />
<glyph unicode="&#xad;" horiz-adv-x="575" d="M25 504q0 35 54 81t95 46q53 0 139 -5t101 -5q14 8 33.5 15t35.5 7t40 -4t50.5 -10.5t26.5 -20.5q0 -10 -18.5 -28.5t-69.5 -49t-136 -47t-263 -16.5q-88 0 -88 37z" />
<glyph unicode="&#xae;" horiz-adv-x="1611" d="M133 913q0 248 189.5 458t492.5 210q279 0 479.5 -204.5t200.5 -491.5q0 -311 -197.5 -477t-496.5 -166q-274 0 -471 159.5t-197 511.5zM272 899q0 -203 163 -372t380 -169q182 0 362.5 133.5t180.5 391.5q0 217 -171 396t-372 179q-279 0 -411 -166t-132 -393zM446 596 q0 23 44.5 93.5t54.5 86.5q-41 14 -41 37q0 37 35.5 61.5t101.5 30.5l135 199q-84 -14 -108.5 -21.5t-83.5 -29.5q25 0 49 -3t24 -14q-10 -10 -18 -10q-29 0 -81 -7t-69 -7q-33 0 -32 24q0 31 23.5 74t70.5 70.5t157.5 46t221.5 18.5q119 0 183.5 -32t64.5 -91 q0 -33 -28 -92t-96.5 -92t-234.5 -61l-123 -23l-28 -6q131 -39 180 -56.5t121.5 -46t88 -51t15.5 -67.5q0 -41 -22 -41q-14 0 -45 13t-99.5 44t-296.5 111l-75 -115v-10q0 -20 -25 -39t-45 -19q-18 0 -19 25zM727 928q156 35 232.5 58.5t107.5 54t34 37t5 14.5q0 33 -123 32 q-20 0 -156 -14q-4 -25 -7 -34t-19 -36z" />
<glyph unicode="&#xb0;" horiz-adv-x="735" d="M276 999q0 119 154 256.5t254 137.5q33 0 72 -22.5t39 -55.5q0 -14 -35 -19q47 -29 66.5 -57.5t19.5 -79.5q0 -139 -108.5 -253.5t-241.5 -114.5q-86 0 -153 62t-67 146zM414 975q0 -41 17.5 -65.5t57.5 -24.5q98 0 178.5 94.5t80.5 196.5q0 29 -15.5 48t-36.5 19 q-14 0 -35.5 -17.5t-31.5 -17.5q-12 12 -13 19q-203 -106 -202 -252z" />
<glyph unicode="&#xb2;" horiz-adv-x="700" d="M51 901q0 82 131 170t256 152.5t158 89t47 45t17.5 29t7.5 16.5q0 33 -47 33q-61 0 -128 -20.5t-208 -90.5q35 -4 71 -6q47 -8 47 -29q0 -20 -30 -22q-43 -10 -98.5 -21.5t-69.5 -11.5q-33 0 -33 41q0 39 23.5 93t63.5 96t147.5 70t207.5 28q72 0 98.5 -37.5t26.5 -141.5 q0 -57 -10 -84.5t-63.5 -73.5t-190.5 -122t-192.5 -108.5t-128.5 -90.5q109 0 198.5 17.5t274.5 62.5q-29 -84 -50.5 -120t-61.5 -54t-139.5 -32.5t-209.5 -14.5q-53 0 -84 37t-31 100z" />
<glyph unicode="&#xb3;" horiz-adv-x="700" d="M-31 854q0 27 41 71t64 44q18 0 18 -15q0 -6 -9 -17t-17 -19q66 -25 124 -25q74 0 212.5 46t138.5 95q0 33 -60.5 53.5t-152.5 20.5q-29 0 -70 -4t-61 -8l-21 -4q-23 0 -22 26q0 106 155.5 128t271 62t115.5 81q0 27 -23.5 37t-88.5 10q-152 0 -279 -50l49 -12 q6 -2 12.5 -7t8.5 -7q0 -25 -133 -25q-63 0 -64 66q0 76 123 111.5t221 35.5q111 0 182.5 -28.5t71.5 -122.5q0 -82 -60.5 -120t-193.5 -67.5t-143 -31.5q119 -18 185.5 -47t66.5 -115q0 -104 -135.5 -184t-313.5 -80q-92 0 -152.5 28.5t-60.5 73.5z" />
<glyph unicode="&#xb4;" horiz-adv-x="1081" d="M231 856q0 59 164 121q109 35 217 72q45 10 93 20q33 0 51 -22.5t18 -79.5q6 -25 6 -39q0 -27 -15 -36t-46 -9q-10 0 -36 2t-38 2q-100 0 -203.5 -21.5t-199.5 -42.5q-10 12 -11 33z" />
<glyph unicode="&#xb5;" horiz-adv-x="1191" d="M-12 -242q0 37 41 128t95 196.5t83 122.5l-2 26q0 164 83 270.5t149.5 159t137.5 52.5q111 0 111 -45q0 -29 -79 -113t-136 -125t-89 -77t-32 -107q0 -35 21 -35q16 0 34.5 10t68.5 35t190.5 152t266.5 242.5t167 115.5q51 0 51 -115q0 -35 -147.5 -186.5t-147.5 -245.5 q0 -61 72 -61q55 0 141 62t135 99l-4 -59l2 -29q-133 -113 -243.5 -196.5t-202.5 -83.5q-49 0 -82 39t-33 96q0 29 10 61.5t35 108.5q-76 -78 -149 -154q-104 -94 -183 -94q-55 0 -90 41l-51 -270q-6 -33 -12 -68q-12 -35 -47 -35q-14 0 -23 2l-96 17q-45 10 -45 63z" />
<glyph unicode="&#xb6;" horiz-adv-x="1351" d="M131 -430l401 1169q-176 0 -271 75t-95 206q0 57 49 201.5t224 248t419 103.5h500l-684 -2003h-187l639 1857h-174l-637 -1857h-184z" />
<glyph unicode="&#xb7;" horiz-adv-x="972" d="M317 647q0 78 56.5 125t120.5 47q78 0 131 -61q41 -51 41 -115q0 -78 -56.5 -125t-120.5 -47q-78 0 -125 56.5t-47 119.5z" />
<glyph unicode="&#xb8;" horiz-adv-x="1081" d="M-10 -256q0 12 14 12q6 0 76 -20.5t94 -20.5q25 0 40 5.5t29.5 22.5t14.5 38q0 29 -47 43t-82 14l80 162h98l-49 -113q10 2 33 2q61 0 110.5 -29.5t49.5 -88.5q-1 -31 -15 -62q-18 -39 -74.5 -58.5t-132.5 -19.5q-78 0 -144.5 21.5t-80.5 49.5t-14 42z" />
<glyph unicode="&#xb9;" horiz-adv-x="522" d="M57 854q0 37 22.5 104.5t53.5 128t72 121t157 219.5l-129 -49l-20 -6q-10 10 -10 14q0 35 17.5 49.5t70.5 44t104 58.5t74 29q20 0 39.5 -30.5t19.5 -55.5q0 -29 -86 -174l-114 -191q-76 -129 -105.5 -198.5t-29.5 -112.5q6 -20 6 -41q0 -6 -6.5 -12.5t-8.5 -6.5 q-8 0 -37.5 15.5t-59.5 32t-30 61.5z" />
<glyph unicode="&#xba;" horiz-adv-x="759" d="M78 612q10 14 27.5 23.5t41 31t95.5 21.5l387 14l63 3l70 2q47 -1 47 -19q0 -59 -59.5 -71.5t-147.5 -12.5q-74 0 -223.5 -8t-222.5 -8l-58 4q-20 6 -20 20zM322 991q0 82 18 137.5t119.5 151.5t275.5 96q39 0 63.5 -16.5t24.5 -40.5q0 -23 -24 -37q45 -23 45 -84 q0 -70 -66 -186q41 0 77 14t79 43l-4 -53l2 -27q-109 -72 -182 -71l-41 2q-117 -109 -220 -109q-141 0 -167 180zM444 977q0 -39 50 -39q59 0 112 45q-16 33 -16 64q0 55 55 151q-115 -61 -158 -108.5t-43 -112.5z" />
<glyph unicode="&#xbb;" horiz-adv-x="774" d="M141 819l4 35q12 63 64 64q72 0 181.5 -103.5t109.5 -152.5q0 -70 -110.5 -241t-115.5 -179q-35 37 -50 72.5t-15 68.5q0 63 64.5 144t64.5 102q0 57 -98.5 90t-98.5 100zM479 819l4 35q12 63 64 64q72 0 181.5 -103.5t109.5 -152.5q0 -70 -111 -241t-115 -179 q-33 37 -48 73.5t-15 67.5q0 63 64.5 144t64.5 102q0 57 -99.5 90t-99.5 100z" />
<glyph unicode="&#xbc;" horiz-adv-x="1167" d="M12 727q0 35 22.5 103.5t55.5 138.5q39 74 97.5 158.5t117.5 172.5l-125 -49l-18 -6q-8 10 -8 15q0 35 16 50t58 38.5t98.5 57.5t79.5 34q18 0 37.5 -31.5t19.5 -54.5q0 -31 -82 -174l-109 -191q-63 -113 -96 -183.5t-33 -127.5l4 -41q0 -10 -5 -14.5t-7 -4.5 q-8 0 -35.5 15.5t-57.5 32t-30 61.5zM29 -8l872 1337h127l-889 -1337h-110zM561 287q0 37 56.5 125t226.5 187t259 137t128 38q43 0 43 -31q0 -10 -4 -18t-19 -23q25 -18 25 -45t-18.5 -57.5t-86.5 -120.5q-37 -45 -57 -75.5t-45 -69.5l98 6q41 0 41 -31q0 -18 -19.5 -52 t-35.5 -62q-14 -2 -58 -8.5t-112 -12.5q-6 -20 -13 -45t-7 -39q0 -25 24 -59q-43 -25 -86 -47.5t-55 -22.5q-33 0 -33 55q0 39 5 70t18 78l-174 -6q-47 0 -74 34.5t-27 94.5zM705 328q0 -14 30 -15l31 -2q74 0 145 13q57 80 115.5 149.5t177.5 204.5q-119 -49 -182.5 -83 t-134 -91.5t-126.5 -107.5t-56 -68z" />
<glyph unicode="&#xbd;" horiz-adv-x="1433" d="M10 729q0 37 22.5 104.5t53.5 128t72 121t157 220.5l-129 -50l-20 -6q-10 10 -10 15q0 35 17 49t70.5 43.5t104.5 58.5t74 29q20 0 39.5 -30.5t19.5 -55.5q0 -29 -86 -174l-114 -191q-76 -129 -106 -198.5t-30 -112.5q6 -20 7 -41q0 -6 -6.5 -12t-8.5 -6q-8 0 -37.5 15 t-59.5 31.5t-30 61.5zM80 -8l872 1337h127l-889 -1337h-110zM780 121q0 82 131 170t256 152.5t158 89t47 45t17.5 28.5t7.5 17q0 33 -47 32q-61 0 -128 -20.5t-208 -89.5q35 -4 71 -6q47 -8 48 -29q0 -20 -31 -23q-43 -10 -98.5 -21t-69.5 -11q-33 0 -33 41q0 39 23.5 93 t63.5 96t147.5 69.5t207.5 27.5q72 0 98.5 -37t26.5 -141q0 -57 -10 -84.5t-63.5 -74t-190.5 -122t-192.5 -108.5t-128.5 -90q109 0 198.5 17.5t274.5 62.5q-29 -84 -50.5 -120t-61.5 -54.5t-139 -32.5t-210 -14q-53 0 -84 36.5t-31 100.5z" />
<glyph unicode="&#xbe;" horiz-adv-x="1320" d="M-82 625q0 27 41 70.5t64 43.5q18 0 18 -14q0 -6 -9 -17.5t-18 -19.5q66 -25 125 -24q74 0 212 46t138 95q0 33 -60 53.5t-153 20.5q-29 0 -69.5 -4.5t-61.5 -8.5l-20 -4q-23 0 -23 27q0 106 156 127.5t271.5 61.5t115.5 81q0 27 -23.5 37t-89.5 10q-152 0 -278 -49 l49 -12q6 -2 12.5 -7t8.5 -8q0 -25 -134 -24q-63 0 -63 65q0 76 123 112t221 36q111 0 182.5 -29t71.5 -123q0 -82 -60.5 -119.5t-193.5 -67.5t-143 -32q119 -18 185.5 -47t66.5 -115q0 -104 -135.5 -184t-313.5 -80q-92 0 -152.5 29t-60.5 74zM193 -8l872 1337h127 l-889 -1337h-110zM664 287q0 37 56 125t226 187t259 137t128 38q43 0 43 -31q0 -10 -4 -18t-18 -23q24 -18 24 -45t-18.5 -57.5t-85.5 -120.5q-37 -45 -57.5 -75.5t-45.5 -69.5l99 6q41 0 41 -31q0 -18 -19.5 -52t-36.5 -62q-14 -2 -58 -8.5t-112 -12.5q-6 -20 -13 -45 t-7 -39q0 -25 25 -59q-43 -25 -86 -47.5t-56 -22.5q-33 0 -33 55q0 39 5.5 70t17.5 78l-174 -6q-47 0 -73.5 34.5t-26.5 94.5zM807 328q0 -14 31 -15l30 -2q74 0 146 13q57 80 115.5 149.5t177.5 204.5q-119 -49 -182.5 -83t-134 -91.5t-127 -107.5t-56.5 -68z" />
<glyph unicode="&#xbf;" horiz-adv-x="952" d="M-41 -334q0 137 101.5 285.5t234.5 299t125 169.5q-18 41 -19 63q0 39 41 39q45 0 91.5 -44t46.5 -109q0 -39 -17.5 -77t-62.5 -83l-258 -258q-82 -70 -128 -124t-46 -97q0 -18 12 -36t45 -27t78 -9q74 0 157.5 18.5t155.5 49.5q-41 6 -62.5 23.5t-21.5 37.5q0 41 51 41 q14 0 33 -6q72 -12 132.5 -25.5t60.5 -54.5q-16 -70 -43 -129t-145 -117.5t-288 -58.5q-106 0 -175.5 40t-84 95t-14.5 94zM485 670q0 18 3.5 34.5t11.5 36.5q10 51 41.5 90t79.5 39q51 0 104 -47q12 -12 12 -59q0 -86 -32.5 -167t-92.5 -81q-66 0 -96.5 46t-30.5 108z" />
<glyph unicode="&#xc0;" horiz-adv-x="1449" d="M-233 -72q0 41 59 113t114.5 115t86 59t90.5 41l157 174l-110 -4q-37 0 -60.5 8t-23.5 37q0 23 19.5 48.5t90 89t137 98t165.5 34.5q33 0 32 -14q0 -20 -73.5 -28.5t-73.5 -24.5q0 -20 31 -21l127 6q217 186 313 267.5t224 181.5t261 187t185 87q29 0 50 -23t21 -52 q0 -33 -7 -52.5t-44 -85.5l-260 -460l115 4l6 2q20 0 57 -13q-49 -57 -75.5 -98t-77.5 -133l-164 -8q-61 -98 -96 -161.5t-35 -82.5q0 -12 13 -23.5t28 -11.5q20 0 58 23.5t118 87.5l37 -53q-131 -123 -224.5 -191.5t-189.5 -68.5q-43 0 -74 30.5t-31 75.5q0 92 57.5 192.5 t96.5 163.5l-442 -14l-437 -430q-72 -70 -108.5 -92.5t-79.5 -22.5q-63 0 -63 43zM733 680l318 20l278 467q-178 -131 -300 -230t-296 -257zM1286 1630q0 29 10.5 57.5t19.5 58t30 29.5q14 0 52 -81.5t145.5 -146t107.5 -87.5l-19 -35q-2 -2 -7 -3t-11 -3q-25 0 -89.5 33 t-135.5 69q-102 61 -103 109z" />
<glyph unicode="&#xc1;" horiz-adv-x="1449" d="M-233 -72q0 41 59 113t114.5 115t86 59t90.5 41l157 174l-110 -4q-37 0 -60.5 8t-23.5 37q0 23 19.5 48.5t90 89t137 98t165.5 34.5q33 0 32 -14q0 -20 -73.5 -28.5t-73.5 -24.5q0 -20 31 -21l127 6q217 186 313 267.5t224 181.5t261 187t185 87q29 0 50 -23t21 -52 q0 -33 -7 -52.5t-44 -85.5l-260 -460l115 4l6 2q20 0 57 -13q-49 -57 -75.5 -98t-77.5 -133l-164 -8q-61 -98 -96 -161.5t-35 -82.5q0 -12 13 -23.5t28 -11.5q20 0 58 23.5t118 87.5l37 -53q-131 -123 -224.5 -191.5t-189.5 -68.5q-43 0 -74 30.5t-31 75.5q0 92 57.5 192.5 t96.5 163.5l-442 -14l-437 -430q-72 -70 -108.5 -92.5t-79.5 -22.5q-63 0 -63 43zM733 680l318 20l278 467q-178 -131 -300 -230t-296 -257zM1273 1454q0 59 164 121q109 35 217 72q45 10 93 20q33 0 51 -22.5t18 -79.5q6 -25 6 -39q0 -27 -15 -36t-46 -9q-10 0 -36 2t-38 2 q-100 0 -203.5 -21.5t-199.5 -42.5q-10 12 -11 33z" />
<glyph unicode="&#xc2;" horiz-adv-x="1449" d="M-233 -72q0 41 59 113t114.5 115t86 59t90.5 41l157 174l-110 -4q-37 0 -60.5 8t-23.5 37q0 23 19.5 48.5t90 89t137 98t165.5 34.5q33 0 32 -14q0 -20 -73.5 -28.5t-73.5 -24.5q0 -20 31 -21l127 6q217 186 313 267.5t224 181.5t261 187t185 87q29 0 50 -23t21 -52 q0 -33 -7 -52.5t-44 -85.5l-260 -460l115 4l6 2q20 0 57 -13q-49 -57 -75.5 -98t-77.5 -133l-164 -8q-61 -98 -96 -161.5t-35 -82.5q0 -12 13 -23.5t28 -11.5q20 0 58 23.5t118 87.5l37 -53q-131 -123 -224.5 -191.5t-189.5 -68.5q-43 0 -74 30.5t-31 75.5q0 92 57.5 192.5 t96.5 163.5l-442 -14l-437 -430q-72 -70 -108.5 -92.5t-79.5 -22.5q-63 0 -63 43zM733 680l318 20l278 467q-178 -131 -300 -230t-296 -257zM1192 1438q0 16 11 42t154.5 87.5t193.5 77.5t87 16q45 0 70 -15.5t125 -111.5q25 -29 24 -47q0 -25 -33.5 -48t-72.5 -50 q-29 43 -89.5 94t-103.5 51q-33 0 -166 -62.5t-170 -62.5q-31 0 -30 29z" />
<glyph unicode="&#xc3;" horiz-adv-x="1449" d="M-233 -72q0 41 59 113t114.5 115t86 59t90.5 41l157 174l-110 -4q-37 0 -60.5 8t-23.5 37q0 23 19.5 48.5t90 89t137 98t165.5 34.5q33 0 32 -14q0 -20 -73.5 -28.5t-73.5 -24.5q0 -20 31 -21l127 6q217 186 313 267.5t224 181.5t261 187t185 87q29 0 50 -23t21 -52 q0 -33 -7 -52.5t-44 -85.5l-260 -460l115 4l6 2q20 0 57 -13q-49 -57 -75.5 -98t-77.5 -133l-164 -8q-61 -98 -96 -161.5t-35 -82.5q0 -12 13 -23.5t28 -11.5q20 0 58 23.5t118 87.5l37 -53q-131 -123 -224.5 -191.5t-189.5 -68.5q-43 0 -74 30.5t-31 75.5q0 92 57.5 192.5 t96.5 163.5l-442 -14l-437 -430q-72 -70 -108.5 -92.5t-79.5 -22.5q-63 0 -63 43zM733 680l318 20l278 467q-178 -131 -300 -230t-296 -257zM1273 1564q0 35 22.5 55.5t68.5 20.5l243 -33q-55 47 -55 84q0 25 27 25q23 0 54.5 -22.5t70.5 -69.5q37 -47 36 -96q0 -84 -84 -84 q-12 2 -18 2l-225 32q37 -43 37 -63q0 -16 -23 -16q-29 0 -69 24.5t-62.5 62t-22.5 78.5z" />
<glyph unicode="&#xc4;" horiz-adv-x="1449" d="M-233 -72q0 41 59 113t114.5 115t86 59t90.5 41l157 174l-110 -4q-37 0 -60.5 8t-23.5 37q0 23 19.5 48.5t90 89t137 98t165.5 34.5q33 0 32 -14q0 -20 -73.5 -28.5t-73.5 -24.5q0 -20 31 -21l127 6q217 186 313 267.5t224 181.5t261 187t185 87q29 0 50 -23t21 -52 q0 -33 -7 -52.5t-44 -85.5l-260 -460l115 4l6 2q20 0 57 -13q-49 -57 -75.5 -98t-77.5 -133l-164 -8q-61 -98 -96 -161.5t-35 -82.5q0 -12 13 -23.5t28 -11.5q20 0 58 23.5t118 87.5l37 -53q-131 -123 -224.5 -191.5t-189.5 -68.5q-43 0 -74 30.5t-31 75.5q0 92 57.5 192.5 t96.5 163.5l-442 -14l-437 -430q-72 -70 -108.5 -92.5t-79.5 -22.5q-63 0 -63 43zM733 680l318 20l278 467q-178 -131 -300 -230t-296 -257zM1163 1467q0 29 21 75q18 35 54 66t91 31q98 -14 99 -86q-1 -33 -19 -76q-23 -43 -43 -65.5t-70 -22.5q-25 0 -53 8t-54 19.5 t-26 50.5zM1555 1473q0 16 16 53q20 61 57 87t88 26t75 -25t24 -63q-1 -39 -19 -74q-10 -33 -37.5 -60.5t-64.5 -27.5q-25 0 -58.5 12t-57 25.5t-23.5 46.5z" />
<glyph unicode="&#xc5;" horiz-adv-x="1449" d="M-233 -72q0 41 59 113t114.5 115t86 59t90.5 41l157 174l-110 -4q-37 0 -60.5 8t-23.5 37q0 23 19.5 48.5t90 89t137 98t165.5 34.5q33 0 32 -14q0 -20 -73.5 -28.5t-73.5 -24.5q0 -20 31 -21l127 6q217 186 313 267.5t224 181.5t261 187t185 87q29 0 50 -23t21 -52 q0 -33 -7 -52.5t-44 -85.5l-260 -460l115 4l6 2q20 0 57 -13q-49 -57 -75.5 -98t-77.5 -133l-164 -8q-61 -98 -96 -161.5t-35 -82.5q0 -12 13 -23.5t28 -11.5q20 0 58 23.5t118 87.5l37 -53q-131 -123 -224.5 -191.5t-189.5 -68.5q-43 0 -74 30.5t-31 75.5q0 92 57.5 192.5 t96.5 163.5l-442 -14l-437 -430q-72 -70 -108.5 -92.5t-79.5 -22.5q-63 0 -63 43zM733 680l318 20l278 467q-178 -131 -300 -230t-296 -257zM1481 1540q0 49 42 100.5t95 51.5q31 0 59 -21q55 -23 56 -84q0 -35 -16.5 -70.5t-39.5 -58.5q-35 -31 -82 -31q-45 0 -77.5 28 t-36.5 85zM1563 1491q4 -8 4 -10q20 23 43.5 48t23.5 50q0 17 -8 33q-29 -14 -46 -45t-17 -64v-12z" />
<glyph unicode="&#xc6;" horiz-adv-x="2613" d="M-133 -74q0 68 82 160t244 172l178 178h-146q-63 0 -63 37q0 16 16 43q98 133 189.5 187.5t212.5 54.5q45 0 45 -25t-29 -24q-106 -20 -107 -41q0 -10 52 -11l71 5q74 53 293 230t364.5 287.5t262.5 174.5q45 29 94 28q31 0 52.5 -19.5t21.5 -59.5q0 -20 -6 -46 q117 82 342 131.5t430 49.5q125 0 202.5 -21.5t73.5 -62.5v-129q0 -49 -30.5 -66.5t-67.5 -30.5q-70 -29 -126 -50t-102 -53t-79 -32q-29 0 -29 21q0 14 10.5 27.5t54.5 49t62 54.5q-184 0 -465.5 -86t-281.5 -156q0 -16 34.5 -41.5t280.5 -32t367 -6.5q59 0 86.5 -17.5 t27.5 -47.5q0 -47 -57 -100.5t-247.5 -76t-451 -159.5t-260.5 -221q0 -33 48 -39q106 -23 204 -23q213 0 416 80t412 217q4 -16 4 -33.5v-33.5q0 -236 -262 -377.5t-574 -141.5q-207 0 -341 68t-134 195q-92 -72 -166 -107t-121 -35q-55 0 -81.5 39t-26.5 92q0 25 4 39.5 t4 20.5l145 289l-450 -15l-404 -420q-72 -76 -129 -109.5t-98 -33.5q-51 0 -51 53zM854 694l291 15l258 419zM1124 209q0 -25 25 -25q29 0 68.5 24.5t106.5 125t181.5 178.5t479.5 166q-236 29 -343.5 59.5t-173.5 116.5l-82 -129h82l31 -31q-51 -63 -83 -118.5t-62 -108.5 l-113 -16l-96 -177q-20 -43 -21 -65z" />
<glyph unicode="&#xc7;" horiz-adv-x="1402" d="M-53 111q0 182 139 416.5t338 413.5t435.5 322.5t391.5 143.5q96 0 150.5 -50t54.5 -138q0 -141 -145.5 -339t-334 -346.5t-296.5 -148.5q-47 0 -78 26.5t-31 71.5q0 31 20.5 67t53.5 64l178 158l66 59q18 18 35 19q29 0 28 -29l-6 -22q141 119 236.5 240.5t95.5 183.5 q0 45 -45 45q-59 0 -162.5 -59.5t-237 -171t-268.5 -259t-229 -311.5t-94 -305q0 -100 54 -160.5t148 -60.5q137 0 304 80.5t298.5 176t311.5 242.5l2 -39q0 -45 -41 -97t-224.5 -205.5t-389 -258t-373.5 -104.5q-174 0 -279.5 101.5t-105.5 273.5zM584 -297q0 12 14 12 q6 0 76 -20.5t94 -20.5q25 0 40 5.5t29.5 22.5t14.5 38q0 29 -47 43t-82 14l80 162h98l-49 -113q10 2 33 2q61 0 110.5 -29.5t49.5 -88.5q-1 -31 -15 -62q-18 -39 -74.5 -58.5t-132.5 -19.5q-78 0 -144.5 21.5t-80.5 49.5t-14 42z" />
<glyph unicode="&#xc8;" horiz-adv-x="1335" d="M-53 104q0 88 71.5 173t168 147.5t209 109t331.5 113.5q-334 39 -443.5 64.5t-109.5 173.5q0 63 46 141t159 165t311.5 143.5t415.5 56.5q158 0 236.5 -15.5t78.5 -44.5l9 -143q0 -43 -28 -61.5t-103.5 -45t-137 -64.5t-86 -51.5t-43.5 -13.5q-25 0 -24 21q0 18 32 45 l111 98q-141 0 -224 -11t-189.5 -41t-220.5 -86t-114 -118q0 -76 140 -76l219 -12l121 -2l200 4q98 0 99 -45q0 -74 -56.5 -111.5t-234.5 -72.5t-325.5 -88.5t-216 -103.5t-121 -99t-52.5 -82q0 -41 60.5 -63.5t169.5 -22.5q143 0 283 41t247.5 94t294.5 162l2 -59 q0 -111 -45 -182.5t-250 -189.5t-576 -118q-246 0 -330.5 70.5t-84.5 199.5zM860 1645q0 29 10.5 57.5t19.5 58t30 29.5q14 0 52 -81.5t145.5 -146t107.5 -87.5l-19 -35q-2 -2 -7 -3t-11 -3q-25 0 -89.5 33t-135.5 69q-102 61 -103 109z" />
<glyph unicode="&#xc9;" horiz-adv-x="1335" d="M-53 104q0 88 71.5 173t168 147.5t209 109t331.5 113.5q-334 39 -443.5 64.5t-109.5 173.5q0 63 46 141t159 165t311.5 143.5t415.5 56.5q158 0 236.5 -15.5t78.5 -44.5l9 -143q0 -43 -28 -61.5t-103.5 -45t-137 -64.5t-86 -51.5t-43.5 -13.5q-25 0 -24 21q0 18 32 45 l111 98q-141 0 -224 -11t-189.5 -41t-220.5 -86t-114 -118q0 -76 140 -76l219 -12l121 -2l200 4q98 0 99 -45q0 -74 -56.5 -111.5t-234.5 -72.5t-325.5 -88.5t-216 -103.5t-121 -99t-52.5 -82q0 -41 60.5 -63.5t169.5 -22.5q143 0 283 41t247.5 94t294.5 162l2 -59 q0 -111 -45 -182.5t-250 -189.5t-576 -118q-246 0 -330.5 70.5t-84.5 199.5zM882 1485q0 59 164 121q109 35 217 72q45 10 93 20q33 0 51 -22.5t18 -79.5q6 -25 6 -39q0 -27 -15 -36t-46 -9q-10 0 -36 2t-38 2q-100 0 -203.5 -21.5t-199.5 -42.5q-10 12 -11 33z" />
<glyph unicode="&#xca;" horiz-adv-x="1335" d="M-53 104q0 88 71.5 173t168 147.5t209 109t331.5 113.5q-334 39 -443.5 64.5t-109.5 173.5q0 63 46 141t159 165t311.5 143.5t415.5 56.5q158 0 236.5 -15.5t78.5 -44.5l9 -143q0 -43 -28 -61.5t-103.5 -45t-137 -64.5t-86 -51.5t-43.5 -13.5q-25 0 -24 21q0 18 32 45 l111 98q-141 0 -224 -11t-189.5 -41t-220.5 -86t-114 -118q0 -76 140 -76l219 -12l121 -2l200 4q98 0 99 -45q0 -74 -56.5 -111.5t-234.5 -72.5t-325.5 -88.5t-216 -103.5t-121 -99t-52.5 -82q0 -41 60.5 -63.5t169.5 -22.5q143 0 283 41t247.5 94t294.5 162l2 -59 q0 -111 -45 -182.5t-250 -189.5t-576 -118q-246 0 -330.5 70.5t-84.5 199.5zM689 1468q0 16 11 42t154.5 87.5t193.5 77.5t87 16q45 0 70 -15.5t125 -111.5q25 -29 24 -47q0 -25 -33.5 -48t-72.5 -50q-29 43 -89.5 94t-103.5 51q-33 0 -166 -62.5t-170 -62.5q-31 0 -30 29z " />
<glyph unicode="&#xcb;" horiz-adv-x="1335" d="M-53 104q0 88 71.5 173t168 147.5t209 109t331.5 113.5q-334 39 -443.5 64.5t-109.5 173.5q0 63 46 141t159 165t311.5 143.5t415.5 56.5q158 0 236.5 -15.5t78.5 -44.5l9 -143q0 -43 -28 -61.5t-103.5 -45t-137 -64.5t-86 -51.5t-43.5 -13.5q-25 0 -24 21q0 18 32 45 l111 98q-141 0 -224 -11t-189.5 -41t-220.5 -86t-114 -118q0 -76 140 -76l219 -12l121 -2l200 4q98 0 99 -45q0 -74 -56.5 -111.5t-234.5 -72.5t-325.5 -88.5t-216 -103.5t-121 -99t-52.5 -82q0 -41 60.5 -63.5t169.5 -22.5q143 0 283 41t247.5 94t294.5 162l2 -59 q0 -111 -45 -182.5t-250 -189.5t-576 -118q-246 0 -330.5 70.5t-84.5 199.5zM788 1495q0 29 21 75q18 35 54 66t91 31q98 -14 99 -86q-1 -33 -19 -76q-23 -43 -43 -65.5t-70 -22.5q-25 0 -53 8t-54 19.5t-26 50.5zM1180 1501q0 16 16 53q20 61 57 87t88 26t75 -25t24 -63 q-1 -39 -19 -74q-10 -33 -37.5 -60.5t-64.5 -27.5q-25 0 -58.5 12t-57 25.5t-23.5 46.5z" />
<glyph unicode="&#xcc;" horiz-adv-x="911" d="M16 727q0 92 102.5 235.5t231.5 237.5t265.5 146.5t240.5 52.5q88 0 143.5 -61.5t55.5 -159.5q0 -180 -140.5 -430t-363.5 -580l4 -31q0 -51 -53 -125.5t-103 -74.5q-39 0 -74.5 31.5t-35.5 70.5q0 23 67.5 122t79.5 118l226 346q86 131 147 267t61 198q0 80 -53 79 q-18 0 -63 -21.5t-147.5 -81.5t-169 -123.5t-156.5 -190.5q63 10 127 20q18 0 18 -22q0 -25 -99.5 -97.5t-131.5 -72.5q-43 0 -111 57t-68 90zM766 1600q0 29 10.5 57.5t19.5 58t30 29.5q14 0 52 -81.5t145.5 -146t107.5 -87.5l-19 -35q-2 -2 -7 -3t-11 -3q-25 0 -89.5 33 t-135.5 69q-102 61 -103 109z" />
<glyph unicode="&#xcd;" horiz-adv-x="911" d="M16 727q0 92 102.5 235.5t231.5 237.5t265.5 146.5t240.5 52.5q88 0 143.5 -61.5t55.5 -159.5q0 -180 -140.5 -430t-363.5 -580l4 -31q0 -51 -53 -125.5t-103 -74.5q-39 0 -74.5 31.5t-35.5 70.5q0 23 67.5 122t79.5 118l226 346q86 131 147 267t61 198q0 80 -53 79 q-18 0 -63 -21.5t-147.5 -81.5t-169 -123.5t-156.5 -190.5q63 10 127 20q18 0 18 -22q0 -25 -99.5 -97.5t-131.5 -72.5q-43 0 -111 57t-68 90zM671 1489q0 59 164 121q109 35 217 72q45 10 93 20q33 0 51 -22.5t18 -79.5q6 -25 6 -39q0 -27 -15 -36t-46 -9q-10 0 -36 2 t-38 2q-100 0 -203.5 -21.5t-199.5 -42.5q-10 12 -11 33z" />
<glyph unicode="&#xce;" horiz-adv-x="911" d="M16 727q0 92 102.5 235.5t231.5 237.5t265.5 146.5t240.5 52.5q88 0 143.5 -61.5t55.5 -159.5q0 -180 -140.5 -430t-363.5 -580l4 -31q0 -51 -53 -125.5t-103 -74.5q-39 0 -74.5 31.5t-35.5 70.5q0 23 67.5 122t79.5 118l226 346q86 131 147 267t61 198q0 80 -53 79 q-18 0 -63 -21.5t-147.5 -81.5t-169 -123.5t-156.5 -190.5q63 10 127 20q18 0 18 -22q0 -25 -99.5 -97.5t-131.5 -72.5q-43 0 -111 57t-68 90zM549 1458q0 16 11 42t154.5 87.5t193.5 77.5t87 16q45 0 70 -15.5t125 -111.5q25 -29 24 -47q0 -25 -33.5 -48t-72.5 -50 q-29 43 -89.5 94t-103.5 51q-33 0 -166 -62.5t-170 -62.5q-31 0 -30 29z" />
<glyph unicode="&#xcf;" horiz-adv-x="911" d="M16 727q0 92 102.5 235.5t231.5 237.5t265.5 146.5t240.5 52.5q88 0 143.5 -61.5t55.5 -159.5q0 -180 -140.5 -430t-363.5 -580l4 -31q0 -51 -53 -125.5t-103 -74.5q-39 0 -74.5 31.5t-35.5 70.5q0 23 67.5 122t79.5 118l226 346q86 131 147 267t61 198q0 80 -53 79 q-18 0 -63 -21.5t-147.5 -81.5t-169 -123.5t-156.5 -190.5q63 10 127 20q18 0 18 -22q0 -25 -99.5 -97.5t-131.5 -72.5q-43 0 -111 57t-68 90zM571 1498q0 29 21 75q18 35 54 66t91 31q98 -14 99 -86q-1 -33 -19 -76q-23 -43 -43 -65.5t-70 -22.5q-25 0 -53 8t-54 19.5 t-26 50.5zM963 1504q0 16 16 53q20 61 57 87t88 26t75 -25t24 -63q-1 -39 -19 -74q-10 -33 -37.5 -60.5t-64.5 -27.5q-25 0 -58.5 12t-57 25.5t-23.5 46.5z" />
<glyph unicode="&#xd0;" horiz-adv-x="1556" d="M-35 537q0 18 27 41q61 68 85.5 92t106.5 24l260 17l13 12l311 383q-152 -16 -241 -36.5t-193 -65.5l108 -3q53 0 54 -20q0 -23 -115 -49.5t-281 -65.5q-80 0 -80 72q0 37 12.5 79t38 139t341 177t544.5 80q201 0 348.5 -53t205 -131t86 -172t28.5 -178q0 -274 -221 -480 t-539.5 -317t-584.5 -111q-109 0 -150 27t-41 100q0 90 50 192.5t136 215.5l-227 -12q-39 0 -60.5 12t-21.5 31zM305 272q0 -59 117 -59q84 0 277.5 21.5t485.5 189.5t292 416q0 135 -143.5 202.5t-452.5 67.5q-16 -61 -28.5 -89t-39.5 -60l-192 -240l51 2q63 8 149 8 q57 0 58 -29q0 -12 -11 -32l-34 -58q-31 -53 -49.5 -64t-77.5 -11q-84 -10 -134.5 -15.5t-113.5 -5.5q-84 -102 -119 -159.5t-35 -84.5z" />
<glyph unicode="&#xd1;" horiz-adv-x="1687" d="M8 809q0 104 36 177t128 164t157.5 140t94.5 49l14 -4l6 -14q0 -14 -39.5 -57t-68.5 -74q135 72 272 143q164 76 295 76q129 0 129 -131q0 -70 -87 -248t-273 -491l155 178q96 113 234.5 257t282 267t208.5 123q45 0 104.5 -70t59.5 -129q0 -43 -68.5 -133t-177 -249.5 t-196.5 -320.5t-88 -241q0 -31 16.5 -51t42.5 -20q47 0 151.5 90t254.5 256l6 -66q0 -106 -244 -331.5t-369 -225.5q-66 0 -104.5 47t-38.5 125q0 100 83 279.5t189.5 362.5t194.5 333q-182 -156 -266 -238t-307.5 -351t-280.5 -361.5t-86 -92.5q-37 0 -97.5 45.5 t-60.5 81.5q0 8 69 124t144 245l146 266q141 256 141 324q0 43 -31 43q-98 0 -319 -134t-286.5 -180.5t-86.5 -46.5q-39 0 -39 64zM1091 1550q0 35 22.5 55.5t68.5 20.5l243 -33q-55 47 -55 84q0 25 27 25q23 0 54.5 -22.5t70.5 -69.5q37 -47 36 -96q0 -84 -84 -84 q-12 2 -18 2l-225 32q37 -43 37 -63q0 -16 -23 -16q-29 0 -69 24.5t-62.5 62t-22.5 78.5z" />
<glyph unicode="&#xd2;" horiz-adv-x="1234" d="M4 408q0 199 166 419t365.5 340.5t326.5 169.5t195 49q74 0 131 -67.5t57 -95.5q0 -27 -49 -49l-141 -64l86 8q159 1 159 -196q0 -213 -172 -461t-378.5 -359.5t-389.5 -111.5q-104 0 -169.5 35.5t-126 138t-60.5 244.5zM203 276q0 -135 104 -135q176 0 385 158 t320.5 343t111.5 267q0 104 -84 105q-117 0 -271.5 -92.5t-220 -181.5t-87.5 -89q-27 0 -27 56q-129 -137 -180 -241t-51 -190zM981 1573q0 29 10.5 57.5t19.5 58t30 29.5q14 0 52 -81.5t145.5 -146t107.5 -87.5l-19 -35q-2 -2 -7 -3t-11 -3q-25 0 -89.5 33t-135.5 69 q-102 61 -103 109z" />
<glyph unicode="&#xd3;" horiz-adv-x="1234" d="M4 408q0 199 166 419t365.5 340.5t326.5 169.5t195 49q74 0 131 -67.5t57 -95.5q0 -27 -49 -49l-141 -64l86 8q159 1 159 -196q0 -213 -172 -461t-378.5 -359.5t-389.5 -111.5q-104 0 -169.5 35.5t-126 138t-60.5 244.5zM203 276q0 -135 104 -135q176 0 385 158 t320.5 343t111.5 267q0 104 -84 105q-117 0 -271.5 -92.5t-220 -181.5t-87.5 -89q-27 0 -27 56q-129 -137 -180 -241t-51 -190zM958 1458q0 59 164 121q109 35 217 72q45 10 93 20q33 0 51 -22.5t18 -79.5q6 -25 6 -39q0 -27 -15 -36t-46 -9q-10 0 -36 2t-38 2 q-100 0 -203.5 -21.5t-199.5 -42.5q-10 12 -11 33z" />
<glyph unicode="&#xd4;" horiz-adv-x="1234" d="M4 408q0 199 166 419t365.5 340.5t326.5 169.5t195 49q74 0 131 -67.5t57 -95.5q0 -27 -49 -49l-141 -64l86 8q159 1 159 -196q0 -213 -172 -461t-378.5 -359.5t-389.5 -111.5q-104 0 -169.5 35.5t-126 138t-60.5 244.5zM203 276q0 -135 104 -135q176 0 385 158 t320.5 343t111.5 267q0 104 -84 105q-117 0 -271.5 -92.5t-220 -181.5t-87.5 -89q-27 0 -27 56q-129 -137 -180 -241t-51 -190zM775 1458q0 16 11 42t154.5 87.5t193.5 77.5t87 16q45 0 70 -15.5t125 -111.5q25 -29 24 -47q0 -25 -33.5 -48t-72.5 -50q-29 43 -89.5 94 t-103.5 51q-33 0 -166 -62.5t-170 -62.5q-31 0 -30 29z" />
<glyph unicode="&#xd5;" horiz-adv-x="1234" d="M4 408q0 199 166 419t365.5 340.5t326.5 169.5t195 49q74 0 131 -67.5t57 -95.5q0 -27 -49 -49l-141 -64l86 8q159 1 159 -196q0 -213 -172 -461t-378.5 -359.5t-389.5 -111.5q-104 0 -169.5 35.5t-126 138t-60.5 244.5zM203 276q0 -135 104 -135q176 0 385 158 t320.5 343t111.5 267q0 104 -84 105q-117 0 -271.5 -92.5t-220 -181.5t-87.5 -89q-27 0 -27 56q-129 -137 -180 -241t-51 -190zM845 1579q0 35 22.5 55.5t68.5 20.5l243 -33q-55 47 -55 84q0 25 27 25q23 0 54.5 -22.5t70.5 -69.5q37 -47 36 -96q0 -84 -84 -84q-12 2 -18 2 l-225 32q37 -43 37 -63q0 -16 -23 -16q-29 0 -69 24.5t-62.5 62t-22.5 78.5z" />
<glyph unicode="&#xd6;" horiz-adv-x="1234" d="M4 408q0 199 166 419t365.5 340.5t326.5 169.5t195 49q74 0 131 -67.5t57 -95.5q0 -27 -49 -49l-141 -64l86 8q159 1 159 -196q0 -213 -172 -461t-378.5 -359.5t-389.5 -111.5q-104 0 -169.5 35.5t-126 138t-60.5 244.5zM203 276q0 -135 104 -135q176 0 385 158 t320.5 343t111.5 267q0 104 -84 105q-117 0 -271.5 -92.5t-220 -181.5t-87.5 -89q-27 0 -27 56q-129 -137 -180 -241t-51 -190zM745 1506q0 29 21 75q18 35 54 66t91 31q98 -14 99 -86q-1 -33 -19 -76q-23 -43 -43 -65.5t-70 -22.5q-25 0 -53 8t-54 19.5t-26 50.5z M1137 1512q0 16 16 53q20 61 57 87t88 26t75 -25t24 -63q-1 -39 -19 -74q-10 -33 -37.5 -60.5t-64.5 -27.5q-25 0 -58.5 12t-57 25.5t-23.5 46.5z" />
<glyph unicode="&#xd7;" horiz-adv-x="1140" d="M227 373q0 35 57.5 100.5t182.5 171.5q-10 16 -74.5 113.5t-64.5 173.5q0 29 9 40t30.5 15t52.5 13.5t41 9.5q37 0 83 -95.5t72 -148.5q133 102 248 180t172 78q29 0 44.5 -41t15.5 -74q0 -37 -37 -69.5t-131 -83.5t-207 -142q98 -137 142 -202.5t44 -112.5 q0 -35 -44 -75t-79 -40q-16 0 -88.5 107.5t-128.5 191.5q-74 -74 -134 -140.5t-60 -96.5v-29l-11 -10q-43 0 -89 59.5t-46 106.5z" />
<glyph unicode="&#xd8;" horiz-adv-x="1306" d="M-61 -94q0 41 28 78l178 178q-39 70 -56 139.5t-17 142.5q0 215 161.5 412t392 337t347.5 178t125 39t28 1q45 0 88 -20.5t73 -62.5t41 -59.5t11 -29.5q0 -20 -32.5 -44t-112.5 -50q51 0 72.5 -2t56.5 -15q66 53 132.5 105.5t115.5 52.5q62 0 123 -76l-291 -211 q6 -43 6 -90q0 -322 -323.5 -618.5t-618.5 -296.5q-63 0 -115.5 16.5t-93.5 52.5l-145 -159q0 -57 -19.5 -85t-52.5 -28q-39 0 -70.5 34t-31.5 81zM291 274l887 742q-29 14 -72 14q-123 0 -293 -114.5t-207 -187.5t-67 -73q-27 0 -39 54q-119 -117 -164 -226.5t-45 -208.5z M371 162q29 -14 69 -15q123 0 290 130.5t304 304.5t160 272z" />
<glyph unicode="&#xd9;" horiz-adv-x="1765" d="M8 805q0 45 27.5 100.5t89 139t92.5 114.5t113 77t317.5 108.5t362.5 62.5q61 0 96 -41t35 -115q0 -72 -39 -141.5t-187.5 -234t-287 -341t-138.5 -215.5q0 -33 41 -32q61 0 293 195.5t457 413.5t306 306t124 88q37 0 59.5 -37t22.5 -94t-143.5 -249.5t-286.5 -393.5 t-143 -289q0 -35 18 -57.5t49 -22.5q82 0 179.5 67t236.5 185l4 -37l4 -26q0 -61 -230.5 -219t-349.5 -158q-61 0 -108 45t-47 107q0 152 106.5 319.5t173.5 271.5q-127 -121 -291.5 -275.5t-341 -294.5t-241.5 -140q-70 0 -125 59.5t-55 138.5q0 109 101 242t259 307 l240 262q37 47 37 60q0 23 -21 22q-33 0 -231.5 -100t-326.5 -159.5t-202 -59.5q-49 0 -49 41zM1138 1538q0 29 10.5 57.5t19.5 58t30 29.5q14 0 52 -81.5t145.5 -146t107.5 -87.5l-19 -35q-2 -2 -7 -3t-11 -3q-25 0 -89.5 33t-135.5 69q-102 61 -103 109z" />
<glyph unicode="&#xda;" horiz-adv-x="1765" d="M8 805q0 45 27.5 100.5t89 139t92.5 114.5t113 77t317.5 108.5t362.5 62.5q61 0 96 -41t35 -115q0 -72 -39 -141.5t-187.5 -234t-287 -341t-138.5 -215.5q0 -33 41 -32q61 0 293 195.5t457 413.5t306 306t124 88q37 0 59.5 -37t22.5 -94t-143.5 -249.5t-286.5 -393.5 t-143 -289q0 -35 18 -57.5t49 -22.5q82 0 179.5 67t236.5 185l4 -37l4 -26q0 -61 -230.5 -219t-349.5 -158q-61 0 -108 45t-47 107q0 152 106.5 319.5t173.5 271.5q-127 -121 -291.5 -275.5t-341 -294.5t-241.5 -140q-70 0 -125 59.5t-55 138.5q0 109 101 242t259 307 l240 262q37 47 37 60q0 23 -21 22q-33 0 -231.5 -100t-326.5 -159.5t-202 -59.5q-49 0 -49 41zM1163 1427q0 59 164 121q109 35 217 72q45 10 93 20q33 0 51 -22.5t18 -79.5q6 -25 6 -39q0 -27 -15 -36t-46 -9q-10 0 -36 2t-38 2q-100 0 -203.5 -21.5t-199.5 -42.5 q-10 12 -11 33z" />
<glyph unicode="&#xdb;" horiz-adv-x="1765" d="M8 805q0 45 27.5 100.5t89 139t92.5 114.5t113 77t317.5 108.5t362.5 62.5q61 0 96 -41t35 -115q0 -72 -39 -141.5t-187.5 -234t-287 -341t-138.5 -215.5q0 -33 41 -32q61 0 293 195.5t457 413.5t306 306t124 88q37 0 59.5 -37t22.5 -94t-143.5 -249.5t-286.5 -393.5 t-143 -289q0 -35 18 -57.5t49 -22.5q82 0 179.5 67t236.5 185l4 -37l4 -26q0 -61 -230.5 -219t-349.5 -158q-61 0 -108 45t-47 107q0 152 106.5 319.5t173.5 271.5q-127 -121 -291.5 -275.5t-341 -294.5t-241.5 -140q-70 0 -125 59.5t-55 138.5q0 109 101 242t259 307 l240 262q37 47 37 60q0 23 -21 22q-33 0 -231.5 -100t-326.5 -159.5t-202 -59.5q-49 0 -49 41zM1145 1458q0 16 11 42t154.5 87.5t193.5 77.5t87 16q45 0 70 -15.5t125 -111.5q25 -29 24 -47q0 -25 -33.5 -48t-72.5 -50q-29 43 -89.5 94t-103.5 51q-33 0 -166 -62.5 t-170 -62.5q-31 0 -30 29z" />
<glyph unicode="&#xdc;" horiz-adv-x="1765" d="M8 805q0 45 27.5 100.5t89 139t92.5 114.5t113 77t317.5 108.5t362.5 62.5q61 0 96 -41t35 -115q0 -72 -39 -141.5t-187.5 -234t-287 -341t-138.5 -215.5q0 -33 41 -32q61 0 293 195.5t457 413.5t306 306t124 88q37 0 59.5 -37t22.5 -94t-143.5 -249.5t-286.5 -393.5 t-143 -289q0 -35 18 -57.5t49 -22.5q82 0 179.5 67t236.5 185l4 -37l4 -26q0 -61 -230.5 -219t-349.5 -158q-61 0 -108 45t-47 107q0 152 106.5 319.5t173.5 271.5q-127 -121 -291.5 -275.5t-341 -294.5t-241.5 -140q-70 0 -125 59.5t-55 138.5q0 109 101 242t259 307 l240 262q37 47 37 60q0 23 -21 22q-33 0 -231.5 -100t-326.5 -159.5t-202 -59.5q-49 0 -49 41zM1192 1506q0 29 21 75q18 35 54 66t91 31q98 -14 99 -86q-1 -33 -19 -76q-23 -43 -43 -65.5t-70 -22.5q-25 0 -53 8t-54 19.5t-26 50.5zM1584 1512q0 16 16 53q20 61 57 87 t88 26t75 -25t24 -63q-1 -39 -19 -74q-10 -33 -37.5 -60.5t-64.5 -27.5q-25 0 -58.5 12t-57 25.5t-23.5 46.5z" />
<glyph unicode="&#xdd;" horiz-adv-x="1472" d="M6 772l12 53q18 63 37 129q31 84 143.5 148.5t247 132.5t273.5 117t235 49q61 0 100.5 -31t39.5 -80t-41 -117.5t-160 -214.5l-248 -313q-106 -133 -134 -170t-28 -61q0 -31 31 -31q53 0 201.5 117.5t339 294t261 246t105.5 69.5t62.5 -43t27.5 -82q0 -18 -14 -44 t-93 -128t-184.5 -244.5t-225.5 -319.5t-120 -212q0 -16 13 -17q131 78 241.5 136.5t171.5 58.5q47 0 48 -25q0 -27 -43 -62.5t-78 -66.5l-246 -192l-238 -219q-68 -76 -100.5 -104.5t-87.5 -28.5q-37 0 -61.5 26.5t-24.5 67.5q0 96 123 304t254 389t276 368l-305 -262 q-123 -106 -282.5 -238.5t-239.5 -132.5q-49 0 -90 41t-41 90q0 63 94 201.5t211 283t203 248t106.5 133t20.5 45.5q0 6 -7.5 18.5t-17.5 12.5q-12 0 -195.5 -97t-317.5 -171t-169 -92.5t-53 -18.5q-12 0 -22.5 12.5t-10.5 26.5zM1130 1403q0 59 164 121q109 35 217 72 q45 10 93 20q33 0 51 -22.5t18 -79.5q6 -25 6 -39q0 -27 -15 -36t-46 -9q-10 0 -36 2t-38 2q-100 0 -203.5 -21.5t-199.5 -42.5q-10 12 -11 33z" />
<glyph unicode="&#xde;" horiz-adv-x="1388" d="M-6 -23q0 35 41 111t141 221q-55 33 -75.5 59.5t-20.5 71.5q0 49 58.5 81t232.5 77q129 182 144 204.5t85 129.5q-102 0 -210.5 -19.5t-189.5 -44t-114 -32t-49 -7.5q-29 0 -29 17q0 14 37 75.5t92.5 138.5t262 109.5t391.5 32.5q45 68 92 137q61 76 137 76q31 0 31 -16 q0 -10 -18.5 -39t-49.5 -78l-53 -86q236 -29 335 -109.5t99 -244.5q0 -240 -254 -406t-623 -166q-39 0 -88 4.5t-96 8.5l-53 -84q39 -8 39 -39q0 -35 -87 -145.5t-136 -110.5q-72 0 -72 73zM461 500l143 -8q139 0 288.5 51t207 104t84 103t26.5 81q0 66 -148.5 89.5 t-293.5 23.5l-225 -323q16 0 51 4t53 4q29 0 29 -19q0 -16 -25 -20l-147 -33z" />
<glyph unicode="&#xdf;" horiz-adv-x="1128" d="M-43 -92q0 53 20.5 125.5t55.5 159.5l192 436q-59 18 -59 55q0 59 156 90q111 244 309 389.5t362 145.5q109 0 152 -68q35 -55 35 -111q0 -106 -113 -182t-263.5 -134t-150.5 -64q0 -8 154 -9q109 0 184.5 -73.5t75.5 -198.5q-2 -20 -2 -33q-27 -186 -248 -332.5 t-399 -146.5q-115 0 -127 76q-4 35 -4 59q0 55 23.5 95t78.5 52.5t82 12.5q37 0 37 -21q0 -12 -8 -22q172 33 250.5 98.5t78.5 143.5t-66.5 136t-150.5 58l-192 -16l-178 -436q-41 -113 -80 -226q-70 -172 -146 -160q-59 8 -59 101zM516 807q266 98 356.5 141t90.5 115 q0 32 -27 65q-10 16 -41 17q-76 0 -190.5 -94.5t-188.5 -243.5z" />
<glyph unicode="&#xe0;" horiz-adv-x="1028" d="M2 233v42t4 47q43 143 317.5 288.5t440.5 145.5q78 0 119 -72l8 -22q0 -23 -29 -37q-35 -12 -43 -17q57 -25 58 -78q0 -27 -91.5 -143.5t-91.5 -163.5q0 -27 18.5 -43t49.5 -16q39 0 77.5 22.5t194.5 135.5l-4 -62l2 -27q-106 -86 -235 -185t-205 -99q-35 0 -60.5 31.5 t-25.5 68.5q0 45 16.5 93t61.5 145q-100 -84 -228.5 -186.5t-179.5 -102.5q-61 0 -111.5 82t-62.5 153zM158 201q0 -45 32 -45q70 0 246 152.5t260 250.5q-125 -35 -225 -75t-184 -93t-106.5 -90t-22.5 -100zM551 1022q0 29 10.5 57.5t19.5 58t30 29.5q14 0 52 -81.5 t145.5 -146t107.5 -87.5l-19 -35q-2 -2 -7 -3t-11 -3q-25 0 -89.5 33t-135.5 69q-102 61 -103 109z" />
<glyph unicode="&#xe1;" horiz-adv-x="1028" d="M2 233v42t4 47q43 143 317.5 288.5t440.5 145.5q78 0 119 -72l8 -22q0 -23 -29 -37q-35 -12 -43 -17q57 -25 58 -78q0 -27 -91.5 -143.5t-91.5 -163.5q0 -27 18.5 -43t49.5 -16q39 0 77.5 22.5t194.5 135.5l-4 -62l2 -27q-106 -86 -235 -185t-205 -99q-35 0 -60.5 31.5 t-25.5 68.5q0 45 16.5 93t61.5 145q-100 -84 -228.5 -186.5t-179.5 -102.5q-61 0 -111.5 82t-62.5 153zM158 201q0 -45 32 -45q70 0 246 152.5t260 250.5q-125 -35 -225 -75t-184 -93t-106.5 -90t-22.5 -100zM432 862q0 59 164 121q109 35 217 72q45 10 93 20q33 0 51 -22.5 t18 -79.5q6 -25 6 -39q0 -27 -15 -36t-46 -9q-10 0 -36 2t-38 2q-100 0 -203.5 -21.5t-199.5 -42.5q-10 12 -11 33z" />
<glyph unicode="&#xe2;" horiz-adv-x="1028" d="M2 233v42t4 47q43 143 317.5 288.5t440.5 145.5q78 0 119 -72l8 -22q0 -23 -29 -37q-35 -12 -43 -17q57 -25 58 -78q0 -27 -91.5 -143.5t-91.5 -163.5q0 -27 18.5 -43t49.5 -16q39 0 77.5 22.5t194.5 135.5l-4 -62l2 -27q-106 -86 -235 -185t-205 -99q-35 0 -60.5 31.5 t-25.5 68.5q0 45 16.5 93t61.5 145q-100 -84 -228.5 -186.5t-179.5 -102.5q-61 0 -111.5 82t-62.5 153zM158 201q0 -45 32 -45q70 0 246 152.5t260 250.5q-125 -35 -225 -75t-184 -93t-106.5 -90t-22.5 -100zM429 805q0 16 11 42t154.5 87.5t193.5 77.5t87 16q45 0 70 -15.5 t125 -111.5q25 -29 24 -47q0 -25 -33.5 -48t-72.5 -50q-29 43 -89.5 94t-103.5 51q-33 0 -166 -62.5t-170 -62.5q-31 0 -30 29z" />
<glyph unicode="&#xe3;" horiz-adv-x="1028" d="M2 233v42t4 47q43 143 317.5 288.5t440.5 145.5q78 0 119 -72l8 -22q0 -23 -29 -37q-35 -12 -43 -17q57 -25 58 -78q0 -27 -91.5 -143.5t-91.5 -163.5q0 -27 18.5 -43t49.5 -16q39 0 77.5 22.5t194.5 135.5l-4 -62l2 -27q-106 -86 -235 -185t-205 -99q-35 0 -60.5 31.5 t-25.5 68.5q0 45 16.5 93t61.5 145q-100 -84 -228.5 -186.5t-179.5 -102.5q-61 0 -111.5 82t-62.5 153zM158 201q0 -45 32 -45q70 0 246 152.5t260 250.5q-125 -35 -225 -75t-184 -93t-106.5 -90t-22.5 -100zM550 966q0 35 22.5 55.5t68.5 20.5l243 -33q-55 47 -55 84 q0 25 27 25q23 0 54.5 -22.5t70.5 -69.5q37 -47 36 -96q0 -84 -84 -84q-12 2 -18 2l-225 32q37 -43 37 -63q0 -16 -23 -16q-29 0 -69 24.5t-62.5 62t-22.5 78.5z" />
<glyph unicode="&#xe4;" horiz-adv-x="1028" d="M2 233v42t4 47q43 143 317.5 288.5t440.5 145.5q78 0 119 -72l8 -22q0 -23 -29 -37q-35 -12 -43 -17q57 -25 58 -78q0 -27 -91.5 -143.5t-91.5 -163.5q0 -27 18.5 -43t49.5 -16q39 0 77.5 22.5t194.5 135.5l-4 -62l2 -27q-106 -86 -235 -185t-205 -99q-35 0 -60.5 31.5 t-25.5 68.5q0 45 16.5 93t61.5 145q-100 -84 -228.5 -186.5t-179.5 -102.5q-61 0 -111.5 82t-62.5 153zM158 201q0 -45 32 -45q70 0 246 152.5t260 250.5q-125 -35 -225 -75t-184 -93t-106.5 -90t-22.5 -100zM354 887q0 29 21 75q18 35 54 66t91 31q98 -14 99 -86 q-1 -33 -19 -76q-23 -43 -43 -65.5t-70 -22.5q-25 0 -53 8t-54 19.5t-26 50.5zM746 893q0 16 16 53q20 61 57 87t88 26t75 -25t24 -63q-1 -39 -19 -74q-10 -33 -37.5 -60.5t-64.5 -27.5q-25 0 -58.5 12t-57 25.5t-23.5 46.5z" />
<glyph unicode="&#xe5;" horiz-adv-x="1028" d="M2 233v42t4 47q43 143 317.5 288.5t440.5 145.5q78 0 119 -72l8 -22q0 -23 -29 -37q-35 -12 -43 -17q57 -25 58 -78q0 -27 -91.5 -143.5t-91.5 -163.5q0 -27 18.5 -43t49.5 -16q39 0 77.5 22.5t194.5 135.5l-4 -62l2 -27q-106 -86 -235 -185t-205 -99q-35 0 -60.5 31.5 t-25.5 68.5q0 45 16.5 93t61.5 145q-100 -84 -228.5 -186.5t-179.5 -102.5q-61 0 -111.5 82t-62.5 153zM158 201q0 -45 32 -45q70 0 246 152.5t260 250.5q-125 -35 -225 -75t-184 -93t-106.5 -90t-22.5 -100zM754 926q0 49 44 105t97 56q33 0 61 -22q31 -12 44.5 -33.5 t13.5 -54.5q0 -39 -15.5 -75.5t-42.5 -63.5q-37 -33 -84 -33t-82.5 31.5t-35.5 89.5zM838 874q4 -8 4 -10q39 43 54 61.5t15 47.5q0 13 -6 31q-31 -16 -49 -51t-18 -66v-13z" />
<glyph unicode="&#xe6;" horiz-adv-x="1273" d="M-57 252q0 102 135 235.5t284.5 189.5t222 77.5t120.5 21.5q49 0 78.5 -18.5t39.5 -63.5q78 43 146.5 64.5t122.5 21.5q72 0 109.5 -33.5t37.5 -87.5q0 -53 -37 -108t-97.5 -96t-149.5 -83t-214 -81q0 -143 111 -144q145 0 438 240l17 -96q-135 -168 -280.5 -254 t-264.5 -86q-111 0 -175.5 66.5t-64.5 183.5q0 35 10 90l-354 -275q-18 -16 -45 -16q-47 0 -95 61.5t-71.5 112.5t-23.5 78zM98 209q0 -27 15 -47q25 -37 252 139t264 264q-221 -68 -376 -167t-155 -189zM758 403q143 59 216 121t73 99q-1 12 -11 16q-31 12 -108.5 -45 t-169.5 -191z" />
<glyph unicode="&#xe7;" horiz-adv-x="739" d="M2 260q0 49 5 87t40 114t229.5 196.5t321.5 120.5q84 0 84 -92q0 -66 -78 -167t-133 -101q-61 0 -74 88q-76 -53 -151 -107q-102 -80 -103 -141q0 -43 46.5 -78t105.5 -35q115 0 221 46.5t227 130.5l-2 -91q-174 -131 -283.5 -194.5t-236.5 -63.5q-106 0 -162.5 87 t-56.5 200zM121 -172q14 4 31 6q119 -29 127 -29q39 0 55 18.5t16 31.5q0 25 -39 35t-71 10l67 120h84l-43 -83q8 2 29 2q49 0 92 -22.5t43 -68.5q0 -22 -12 -47q-14 -29 -62.5 -44t-113.5 -15q-72 0 -124.5 15.5t-65.5 40t-13 30.5z" />
<glyph unicode="&#xe8;" horiz-adv-x="735" d="M2 233q0 219 172 380t389 161q127 0 127 -94q0 -137 -144.5 -224t-342.5 -155l-4 -45q0 -49 34.5 -77.5t94.5 -28.5q100 0 196 45t217 127l-4 -89q-217 -162 -313 -210t-188 -48q-233 0 -234 258zM223 399q119 49 208 118t89 114q0 25 -24 24q-63 0 -146.5 -76.5 t-126.5 -179.5zM315 1022q0 29 10.5 57.5t19.5 58t30 29.5q14 0 52 -81.5t145.5 -146t107.5 -87.5l-19 -35q-2 -2 -7 -3t-11 -3q-25 0 -89.5 33t-135.5 69q-102 61 -103 109z" />
<glyph unicode="&#xe9;" horiz-adv-x="735" d="M2 233q0 219 172 380t389 161q127 0 127 -94q0 -137 -144.5 -224t-342.5 -155l-4 -45q0 -49 34.5 -77.5t94.5 -28.5q100 0 196 45t217 127l-4 -89q-217 -162 -313 -210t-188 -48q-233 0 -234 258zM223 399q119 49 208 118t89 114q0 25 -24 24q-63 0 -146.5 -76.5 t-126.5 -179.5zM387 852q0 59 164 121q109 35 217 72q45 10 93 20q33 0 51 -22.5t18 -79.5q6 -25 6 -39q0 -27 -15 -36t-46 -9q-10 0 -36 2t-38 2q-100 0 -203.5 -21.5t-199.5 -42.5q-10 12 -11 33z" />
<glyph unicode="&#xea;" horiz-adv-x="735" d="M2 233q0 219 172 380t389 161q127 0 127 -94q0 -137 -144.5 -224t-342.5 -155l-4 -45q0 -49 34.5 -77.5t94.5 -28.5q100 0 196 45t217 127l-4 -89q-217 -162 -313 -210t-188 -48q-233 0 -234 258zM158 825q0 16 11 42t154.5 87.5t193.5 77.5t87 16q45 0 70 -15.5 t125 -111.5q25 -29 24 -47q0 -25 -33.5 -48t-72.5 -50q-29 43 -89.5 94t-103.5 51q-33 0 -166 -62.5t-170 -62.5q-31 0 -30 29zM223 399q119 49 208 118t89 114q0 25 -24 24q-63 0 -146.5 -76.5t-126.5 -179.5z" />
<glyph unicode="&#xeb;" horiz-adv-x="735" d="M2 233q0 219 172 380t389 161q127 0 127 -94q0 -137 -144.5 -224t-342.5 -155l-4 -45q0 -49 34.5 -77.5t94.5 -28.5q100 0 196 45t217 127l-4 -89q-217 -162 -313 -210t-188 -48q-233 0 -234 258zM223 399q119 49 208 118t89 114q0 25 -24 24q-63 0 -146.5 -76.5 t-126.5 -179.5zM231 924q0 29 21 75q18 35 54 66t91 31q98 -14 99 -86q-1 -33 -19 -76q-23 -43 -43 -65.5t-70 -22.5q-25 0 -53 8t-54 19.5t-26 50.5zM623 930q0 16 16 53q20 61 57 87t88 26t75 -25t24 -63q-1 -39 -19 -74q-10 -33 -37.5 -60.5t-64.5 -27.5q-25 0 -58.5 12 t-57 25.5t-23.5 46.5z" />
<glyph unicode="&#xec;" horiz-adv-x="593" d="M2 231q0 162 123 321t272 159q25 0 51.5 -12.5t26.5 -45.5q0 -61 -113.5 -170.5t-175.5 -167.5q-14 -31 -14 -51q0 -96 119 -96q55 0 119.5 32t187.5 122l-2 -91q-98 -76 -195 -149q-137 -96 -217 -96q-84 0 -133 63.5t-49 181.5zM205 995q0 29 10.5 57.5t19.5 58 t30 29.5q14 0 52 -81.5t145.5 -146t107.5 -87.5l-19 -35q-2 -2 -7 -3t-11 -3q-25 0 -89.5 33t-135.5 69q-102 61 -103 109z" />
<glyph unicode="&#xed;" horiz-adv-x="593" d="M2 231q0 162 123 321t272 159q25 0 51.5 -12.5t26.5 -45.5q0 -61 -113.5 -170.5t-175.5 -167.5q-14 -31 -14 -51q0 -96 119 -96q55 0 119.5 32t187.5 122l-2 -91q-98 -76 -195 -149q-137 -96 -217 -96q-84 0 -133 63.5t-49 181.5zM200 821q0 59 164 121q109 35 217 72 q45 10 93 20q33 0 51 -22.5t18 -79.5q6 -25 6 -39q0 -27 -15 -36t-46 -9q-10 0 -36 2t-38 2q-100 0 -203.5 -21.5t-199.5 -42.5q-10 12 -11 33z" />
<glyph unicode="&#xee;" horiz-adv-x="593" d="M2 231q0 162 123 321t272 159q25 0 51.5 -12.5t26.5 -45.5q0 -61 -113.5 -170.5t-175.5 -167.5q-14 -31 -14 -51q0 -96 119 -96q55 0 119.5 32t187.5 122l-2 -91q-98 -76 -195 -149q-137 -96 -217 -96q-84 0 -133 63.5t-49 181.5zM7 733q0 16 11 42t154.5 87.5 t193.5 77.5t87 16q45 0 70 -15.5t125 -111.5q25 -29 24 -47q0 -25 -33.5 -48t-72.5 -50q-29 43 -89.5 94t-103.5 51q-33 0 -166 -62.5t-170 -62.5q-31 0 -30 29z" />
<glyph unicode="&#xef;" horiz-adv-x="593" d="M2 231q0 162 123 321t272 159q25 0 51.5 -12.5t26.5 -45.5q0 -61 -113.5 -170.5t-175.5 -167.5q-14 -31 -14 -51q0 -96 119 -96q55 0 119.5 32t187.5 122l-2 -91q-98 -76 -195 -149q-137 -96 -217 -96q-84 0 -133 63.5t-49 181.5zM110 863q0 29 21 75q18 35 54 66t91 31 q98 -14 99 -86q-1 -33 -19 -76q-23 -43 -43 -65.5t-70 -22.5q-25 0 -53 8t-54 19.5t-26 50.5zM502 869q0 16 16 53q20 61 57 87t88 26t75 -25t24 -63q-1 -39 -19 -74q-10 -33 -37.5 -60.5t-64.5 -27.5q-25 0 -58.5 12t-57 25.5t-23.5 46.5z" />
<glyph unicode="&#xf0;" horiz-adv-x="817" d="M-2 233q0 90 16.5 162t70.5 138.5t195.5 148.5t223.5 82q14 0 27.5 -10.5t48.5 -46.5q-8 70 -19.5 128t-21.5 121q-139 -18 -174 -23t-111 -28q59 90 105.5 127t142.5 66q-33 94 -66 190q0 14 35 15q82 0 101.5 -17.5t35.5 -103.5l10 -58q127 19 254 39 q-68 -111 -96 -138.5t-133 -49.5q16 -113 34.5 -233.5t18.5 -215.5q0 -57 -25.5 -120.5t-52.5 -124.5q0 -27 44 -27q27 0 56.5 13.5t98.5 54.5l-2 -89q-145 -96 -229 -96q-29 0 -56 21q-145 -168 -305 -168q-94 0 -155.5 65.5t-71.5 177.5zM150 211q0 -61 79 -61 q98 0 228.5 132t130.5 224q0 63 -45 63q-125 0 -259 -117.5t-134 -240.5z" />
<glyph unicode="&#xf1;" horiz-adv-x="956" d="M2 231v29q0 115 108.5 267.5t204.5 152.5q66 0 90.5 -8t24.5 -33q0 -43 -128 -167t-128 -165q0 -25 21 -24q14 0 22 7t54 63.5t270.5 232.5t285.5 176q25 0 35 -39t21.5 -76t11.5 -43q-84 -100 -166 -198.5t-82 -159.5q0 -53 60 -53q41 0 100.5 29.5t155.5 99.5l-5 -62 l3 -29q-186 -141 -270.5 -196t-170.5 -55q-45 0 -76.5 37.5t-31.5 91.5q0 88 66.5 189t109.5 165q-94 -74 -169 -144.5t-141.5 -154.5t-103.5 -115t-68 -31q-57 0 -80.5 46.5t-23.5 166.5zM376 966q0 35 22.5 55.5t68.5 20.5l243 -33q-55 47 -55 84q0 25 27 25 q23 0 54.5 -22.5t70.5 -69.5q37 -47 36 -96q0 -84 -84 -84q-12 2 -18 2l-225 32q37 -43 37 -63q0 -16 -23 -16q-29 0 -69 24.5t-62.5 62t-22.5 78.5z" />
<glyph unicode="&#xf2;" horiz-adv-x="815" d="M2 231q0 106 26.5 187.5t109.5 160t201 132t226 53.5q47 0 79 -20.5t32 -51.5q0 -33 -47 -55q41 -14 56 -39t15 -76q0 -100 -98 -270l41 -2q43 0 79 14.5t99 57.5q-2 -16 -3 -32t-1 -36v-23q-78 -53 -131 -74.5t-106 -21.5l-60 4q-160 -152 -301 -151q-88 0 -145.5 63.5 t-71.5 179.5zM154 209q0 -61 73 -62q49 0 84 14.5t82 55.5q-23 49 -22 92q0 45 19.5 94.5t72.5 141.5q-154 -82 -231.5 -149.5t-77.5 -186.5zM348 1042q0 29 10.5 57.5t19.5 58t30 29.5q14 0 52 -81.5t145.5 -146t107.5 -87.5l-19 -35q-2 -2 -7 -3t-11 -3q-25 0 -89.5 33 t-135.5 69q-102 61 -103 109z" />
<glyph unicode="&#xf3;" horiz-adv-x="815" d="M2 231q0 106 26.5 187.5t109.5 160t201 132t226 53.5q47 0 79 -20.5t32 -51.5q0 -33 -47 -55q41 -14 56 -39t15 -76q0 -100 -98 -270l41 -2q43 0 79 14.5t99 57.5q-2 -16 -3 -32t-1 -36v-23q-78 -53 -131 -74.5t-106 -21.5l-60 4q-160 -152 -301 -151q-88 0 -145.5 63.5 t-71.5 179.5zM154 209q0 -61 73 -62q49 0 84 14.5t82 55.5q-23 49 -22 92q0 45 19.5 94.5t72.5 141.5q-154 -82 -231.5 -149.5t-77.5 -186.5zM383 893q0 59 164 121q109 35 217 72q45 10 93 20q33 0 51 -22.5t18 -79.5q6 -25 6 -39q0 -27 -15 -36t-46 -9q-10 0 -36 2t-38 2 q-100 0 -203.5 -21.5t-199.5 -42.5q-10 12 -11 33z" />
<glyph unicode="&#xf4;" horiz-adv-x="815" d="M2 231q0 106 26.5 187.5t109.5 160t201 132t226 53.5q47 0 79 -20.5t32 -51.5q0 -33 -47 -55q41 -14 56 -39t15 -76q0 -100 -98 -270l41 -2q43 0 79 14.5t99 57.5q-2 -16 -3 -32t-1 -36v-23q-78 -53 -131 -74.5t-106 -21.5l-60 4q-160 -152 -301 -151q-88 0 -145.5 63.5 t-71.5 179.5zM154 209q0 -61 73 -62q49 0 84 14.5t82 55.5q-23 49 -22 92q0 45 19.5 94.5t72.5 141.5q-154 -82 -231.5 -149.5t-77.5 -186.5zM175 836q0 16 11 42t154.5 87.5t193.5 77.5t87 16q45 0 70 -15.5t125 -111.5q25 -29 24 -47q0 -25 -33.5 -48t-72.5 -50 q-29 43 -89.5 94t-103.5 51q-33 0 -166 -62.5t-170 -62.5q-31 0 -30 29z" />
<glyph unicode="&#xf5;" horiz-adv-x="815" d="M2 231q0 106 26.5 187.5t109.5 160t201 132t226 53.5q47 0 79 -20.5t32 -51.5q0 -33 -47 -55q41 -14 56 -39t15 -76q0 -100 -98 -270l41 -2q43 0 79 14.5t99 57.5q-2 -16 -3 -32t-1 -36v-23q-78 -53 -131 -74.5t-106 -21.5l-60 4q-160 -152 -301 -151q-88 0 -145.5 63.5 t-71.5 179.5zM154 209q0 -61 73 -62q49 0 84 14.5t82 55.5q-23 49 -22 92q0 45 19.5 94.5t72.5 141.5q-154 -82 -231.5 -149.5t-77.5 -186.5zM354 997q0 35 22.5 55.5t68.5 20.5l243 -33q-55 47 -55 84q0 25 27 25q23 0 54.5 -22.5t70.5 -69.5q37 -47 36 -96q0 -84 -84 -84 q-12 2 -18 2l-225 32q37 -43 37 -63q0 -16 -23 -16q-29 0 -69 24.5t-62.5 62t-22.5 78.5z" />
<glyph unicode="&#xf6;" horiz-adv-x="815" d="M2 231q0 106 26.5 187.5t109.5 160t201 132t226 53.5q47 0 79 -20.5t32 -51.5q0 -33 -47 -55q41 -14 56 -39t15 -76q0 -100 -98 -270l41 -2q43 0 79 14.5t99 57.5q-2 -16 -3 -32t-1 -36v-23q-78 -53 -131 -74.5t-106 -21.5l-60 4q-160 -152 -301 -151q-88 0 -145.5 63.5 t-71.5 179.5zM154 209q0 -61 73 -62q49 0 84 14.5t82 55.5q-23 49 -22 92q0 45 19.5 94.5t72.5 141.5q-154 -82 -231.5 -149.5t-77.5 -186.5zM250 914q0 29 21 75q18 35 54 66t91 31q98 -14 99 -86q-1 -33 -19 -76q-23 -43 -43 -65.5t-70 -22.5q-25 0 -53 8t-54 19.5 t-26 50.5zM642 920q0 16 16 53q20 61 57 87t88 26t75 -25t24 -63q-1 -39 -19 -74q-10 -33 -37.5 -60.5t-64.5 -27.5q-25 0 -58.5 12t-57 25.5t-23.5 46.5z" />
<glyph unicode="&#xf7;" horiz-adv-x="6213" d="M283 475h137q25 -188 104.5 -282.5t220.5 -94.5q119 0 215.5 87t96.5 249v31q-4 20 -10.5 89t-256 179.5t-355 184t-105.5 303.5v41.5t11 113.5t128 177t272 85q172 0 300 -104t128 -289h-149q0 123 -97.5 205t-217.5 82q-100 0 -167 -66.5t-67 -199.5q-2 -14 -2 -28.5 v-20.5q0 -182 190 -283q178 -80 357 -158q192 -112 192 -319q0 -231 -140 -364.5t-331 -133.5q-188 0 -321 133t-133 383zM1384 717q0 158 71 323.5t288 186.5q190 0 294.5 -129t104.5 -348q0 -346 -65.5 -570.5t-333.5 -224.5q-213 0 -286 187.5t-73 574.5zM1509 698 q0 -274 35 -453t199 -179q152 0 213 158.5t61 369.5q0 248 -54 381t-220 133q-129 0 -181.5 -142.5t-52.5 -267.5zM2271 1075v119h137v188q0 170 71 212t216 42v-116q-100 0 -124.5 -27t-24.5 -131v-168h137v-119h-137v-1075h-138v1075h-137zM2728 1075v119h119v358h135 v-358h158v-119h-158v-854q0 -127 78 -127q37 0 80 23v-117q-25 -10 -48.5 -17.5t-56.5 -7.5q-80 0 -134 61.5t-54 217.5v821h-119zM3310 0v1624h149v-809l567 809h189l-481 -686l495 -938h-170l-424 803l-176 -223v-580h-149zM4325 561q0 356 91.5 503.5t269.5 147.5 q170 0 258 -139t88 -360v-82q-6 -35 -8 -51h-561q4 -172 37.5 -343t185.5 -171q104 0 157.5 85t53.5 187q0 23 -2 33h129q0 -213 -97.5 -314.5t-240.5 -101.5q-231 0 -296 187.5t-65 418.5zM4463 698h432q0 223 -58.5 307.5t-150.5 84.5q-111 0 -167 -89.5t-56 -302.5z M5143 1194h135l262 -973l254 973h137l-379 -1376q-23 -111 -99.5 -169.5t-197.5 -58.5h-26l-48 4v119q31 -6 60 -6q90 0 151.5 82t61.5 197z" />
<glyph unicode="&#xf8;" horiz-adv-x="806" d="M-35 299q0 188 157 340t443 152q49 72 79 97t52 25q10 0 37 -8t49 -8q16 0 41 6l-194 -241q59 -20 59 -107q0 -49 -20.5 -119.5t-55.5 -144.5q51 -12 101.5 28.5t93.5 83.5l31 -96q-82 -102 -149.5 -132t-147.5 -30h-41q-49 -72 -124 -109.5t-147 -37.5q-25 0 -36 2 l-64 -129q12 -72 -41 -72q-27 0 -49.5 24.5t-22.5 63.5q0 23 20.5 75t43.5 87q-115 84 -115 250zM129 242q-6 -39 14.5 -63.5t61.5 -24.5q70 0 166 71q-12 18 -21.5 45t-9.5 62q0 47 17.5 94t62.5 106l-17 17q-90 -66 -180 -129q-84 -74 -94 -178z" />
<glyph unicode="&#xf9;" horiz-adv-x="993" d="M2 231q0 164 83 270.5t149.5 159t138.5 52.5q111 0 110 -45q0 -29 -78.5 -113t-136 -125t-89.5 -77t-32 -107q0 -35 21 -35q16 0 34.5 10t69 35t190.5 152t266 242.5t167 115.5q51 0 51 -115q0 -35 -147.5 -186.5t-147.5 -245.5q0 -61 72 -61q55 0 141 62t135 99l-4 -59 l2 -29q-133 -113 -243.5 -196.5t-202.5 -83.5q-49 0 -82 39t-33 96q0 29 10.5 61.5t34.5 108.5q-76 -78 -149 -154q-104 -94 -182 -94q-147 0 -148 223zM438 1022q0 29 10.5 57.5t19.5 58t30 29.5q14 0 52 -81.5t145.5 -146t107.5 -87.5l-19 -35q-2 -2 -7 -3t-11 -3 q-25 0 -89.5 33t-135.5 69q-102 61 -103 109z" />
<glyph unicode="&#xfa;" horiz-adv-x="993" d="M2 231q0 164 83 270.5t149.5 159t138.5 52.5q111 0 110 -45q0 -29 -78.5 -113t-136 -125t-89.5 -77t-32 -107q0 -35 21 -35q16 0 34.5 10t69 35t190.5 152t266 242.5t167 115.5q51 0 51 -115q0 -35 -147.5 -186.5t-147.5 -245.5q0 -61 72 -61q55 0 141 62t135 99l-4 -59 l2 -29q-133 -113 -243.5 -196.5t-202.5 -83.5q-49 0 -82 39t-33 96q0 29 10.5 61.5t34.5 108.5q-76 -78 -149 -154q-104 -94 -182 -94q-147 0 -148 223zM495 852q0 59 164 121q109 35 217 72q45 10 93 20q33 0 51 -22.5t18 -79.5q6 -25 6 -39q0 -27 -15 -36t-46 -9 q-10 0 -36 2t-38 2q-100 0 -203.5 -21.5t-199.5 -42.5q-10 12 -11 33z" />
<glyph unicode="&#xfb;" horiz-adv-x="993" d="M2 231q0 164 83 270.5t149.5 159t138.5 52.5q111 0 110 -45q0 -29 -78.5 -113t-136 -125t-89.5 -77t-32 -107q0 -35 21 -35q16 0 34.5 10t69 35t190.5 152t266 242.5t167 115.5q51 0 51 -115q0 -35 -147.5 -186.5t-147.5 -245.5q0 -61 72 -61q55 0 141 62t135 99l-4 -59 l2 -29q-133 -113 -243.5 -196.5t-202.5 -83.5q-49 0 -82 39t-33 96q0 29 10.5 61.5t34.5 108.5q-76 -78 -149 -154q-104 -94 -182 -94q-147 0 -148 223zM357 862q0 16 11 42t154.5 87.5t193.5 77.5t87 16q45 0 70 -15.5t125 -111.5q25 -29 24 -47q0 -25 -33.5 -48t-72.5 -50 q-29 43 -89.5 94t-103.5 51q-33 0 -166 -62.5t-170 -62.5q-31 0 -30 29z" />
<glyph unicode="&#xfc;" horiz-adv-x="993" d="M2 231q0 164 83 270.5t149.5 159t138.5 52.5q111 0 110 -45q0 -29 -78.5 -113t-136 -125t-89.5 -77t-32 -107q0 -35 21 -35q16 0 34.5 10t69 35t190.5 152t266 242.5t167 115.5q51 0 51 -115q0 -35 -147.5 -186.5t-147.5 -245.5q0 -61 72 -61q55 0 141 62t135 99l-4 -59 l2 -29q-133 -113 -243.5 -196.5t-202.5 -83.5q-49 0 -82 39t-33 96q0 29 10.5 61.5t34.5 108.5q-76 -78 -149 -154q-104 -94 -182 -94q-147 0 -148 223zM397 897q0 29 21 75q18 35 54 66t91 31q98 -14 99 -86q-1 -33 -19 -76q-23 -43 -43 -65.5t-70 -22.5q-25 0 -53 8 t-54 19.5t-26 50.5zM789 903q0 16 16 53q20 61 57 87t88 26t75 -25t24 -63q-1 -39 -19 -74q-10 -33 -37.5 -60.5t-64.5 -27.5q-25 0 -58.5 12t-57 25.5t-23.5 46.5z" />
<glyph unicode="&#xfd;" horiz-adv-x="901" d="M2 233q0 106 39 194.5t112.5 166.5t139 127t92.5 49t57.5 -30.5t30.5 -59.5q0 -72 -118.5 -177.5t-194.5 -162.5q-20 -35 -26.5 -54.5t-12.5 -64.5q88 16 145 51q115 80 230.5 185.5t199.5 192.5t111 87q25 0 38 -43t13 -63q0 -53 -72 -152l-151 -223l-203 -311 q102 90 216 179t259 198l-4 -62l2 -27q-133 -104 -249.5 -210.5t-190.5 -197.5t-143.5 -176t-102.5 -85t-46 44t-13 89q0 16 7 32.5t36 65.5l119 209q41 70 75.5 127t91.5 148q-158 -127 -235.5 -186.5t-108.5 -59.5q-49 0 -93 70.5t-50 129.5zM522 862q0 59 164 121 q109 35 217 72q45 10 93 20q33 0 51 -22.5t18 -79.5q6 -25 6 -39q0 -27 -15 -36t-46 -9q-10 0 -36 2t-38 2q-100 0 -203.5 -21.5t-199.5 -42.5q-10 12 -11 33z" />
<glyph unicode="&#xfe;" horiz-adv-x="985" d="M-193 -336q0 111 49.5 196t137.5 200.5t143.5 197.5t98.5 158q-82 -68 -129.5 -105t-106.5 -78l-2 31l4 58q123 94 198.5 177t139.5 206l98 186q63 119 135 217t138 98q78 0 77 -57q0 -18 -13 -41t-65.5 -82t-99.5 -136t-202 -368q123 80 224 137.5t167 57.5 q43 0 69.5 -26.5t26.5 -69.5q0 -104 -101.5 -224.5t-232.5 -230.5l57 -4q70 0 154 37t213 123l-2 -89q-182 -129 -283.5 -184t-230.5 -55q-41 0 -70.5 8t-76.5 33q-59 -12 -93 -12l-84 12l-106 -211q-76 -154 -107.5 -199t-62.5 -45q-29 0 -45.5 22.5t-16.5 61.5zM285 229 q47 0 87 -4t81 -16q90 92 142 163.5t52 100.5q0 33 -24 33q-23 -6 -27 -10q-104 -51 -165.5 -105.5t-145.5 -161.5z" />
<glyph unicode="&#xff;" horiz-adv-x="901" d="M2 233q0 106 39 194.5t112.5 166.5t139 127t92.5 49t57.5 -30.5t30.5 -59.5q0 -72 -118.5 -177.5t-194.5 -162.5q-20 -35 -26.5 -54.5t-12.5 -64.5q88 16 145 51q115 80 230.5 185.5t199.5 192.5t111 87q25 0 38 -43t13 -63q0 -53 -72 -152l-151 -223l-203 -311 q102 90 216 179t259 198l-4 -62l2 -27q-133 -104 -249.5 -210.5t-190.5 -197.5t-143.5 -176t-102.5 -85t-46 44t-13 89q0 16 7 32.5t36 65.5l119 209q41 70 75.5 127t91.5 148q-158 -127 -235.5 -186.5t-108.5 -59.5q-49 0 -93 70.5t-50 129.5zM346 904q0 29 21 75 q18 35 54 66t91 31q98 -14 99 -86q-1 -33 -19 -76q-23 -43 -43 -65.5t-70 -22.5q-25 0 -53 8t-54 19.5t-26 50.5zM738 910q0 16 16 53q20 61 57 87t88 26t75 -25t24 -63q-1 -39 -19 -74q-10 -33 -37.5 -60.5t-64.5 -27.5q-25 0 -58.5 12t-57 25.5t-23.5 46.5z" />
<glyph unicode="&#x152;" horiz-adv-x="2369" d="M94 434q0 270 253 553t465 356.5t261 91t88 17.5q43 0 84 -22.5t75 -69.5t34 -80t-21.5 -45t-154.5 -57q55 0 83.5 -3.5t61.5 -13.5q102 125 287.5 193.5t364.5 91t331 22.5q61 0 127 -29.5t66 -84.5v-113q0 -41 -11.5 -56.5t-71 -40t-121 -49t-116.5 -53t-76 -28.5 q-23 0 -22 18q0 23 24.5 55.5t87.5 90.5q-113 0 -284.5 -37t-263.5 -76q-59 -31 -112.5 -77t-53.5 -77q0 -35 87 -44t250.5 -19t311.5 -10q61 0 91 -19.5t30 -50.5q0 -49 -60.5 -98t-233.5 -67.5t-446.5 -158t-273.5 -229.5q0 -41 82 -56.5t174 -15.5q182 0 372.5 71 t458.5 222q6 -41 7 -76q0 -231 -272.5 -361t-598.5 -130q-94 0 -174 12.5t-143.5 41t-95 93t-31.5 140.5q0 37 4 57t14 45q-100 -100 -258 -172t-299 -72q-106 0 -195.5 58.5t-137.5 154t-48 207.5zM299 309q0 -86 53.5 -107.5t93.5 -21.5q141 0 328 145.5t327 339 t140 304.5q0 60 -47 80q-35 18 -74 18q-115 0 -274.5 -120t-198.5 -178t-49 -69.5t-25 -11.5q-14 0 -30.5 23.5t-26.5 46.5q-76 -102 -146.5 -231.5t-70.5 -217.5zM1225 467q109 86 256.5 144t292.5 83q-156 14 -252.5 30.5t-151.5 49.5q2 -8 2 -22q0 -63 -44 -133 t-103 -152z" />
<glyph unicode="&#x153;" horiz-adv-x="1144" d="M-33 307q12 145 107.5 246.5t239 152t212.5 50.5q106 0 136 -94q74 57 148.5 83.5t143.5 26.5q72 0 115 -27.5t43 -80.5q0 -45 -35 -98.5t-104.5 -110t-151.5 -90t-209 -74.5q0 -143 115 -144q156 0 451 240l16 -96q-172 -172 -313.5 -256t-243.5 -84q-139 0 -201 145 q-55 -76 -132 -110.5t-126 -34.5q-100 -10 -155.5 107.5t-55.5 248.5zM123 223q0 -86 70 -127q18 0 85.5 28t108.5 69q12 98 36.5 179t59.5 128l-16 49q-178 -63 -261 -151.5t-83 -174.5zM639 403q141 57 213 120t72 98q-1 12 -11 18q-29 12 -102.5 -45t-171.5 -191z" />
<glyph unicode="&#x178;" horiz-adv-x="1472" d="M6 772l12 53q18 63 37 129q31 84 143.5 148.5t247 132.5t273.5 117t235 49q61 0 100.5 -31t39.5 -80t-41 -117.5t-160 -214.5l-248 -313q-106 -133 -134 -170t-28 -61q0 -31 31 -31q53 0 201.5 117.5t339 294t261 246t105.5 69.5t62.5 -43t27.5 -82q0 -18 -14 -44 t-93 -128t-184.5 -244.5t-225.5 -319.5t-120 -212q0 -16 13 -17q131 78 241.5 136.5t171.5 58.5q47 0 48 -25q0 -27 -43 -62.5t-78 -66.5l-246 -192l-238 -219q-68 -76 -100.5 -104.5t-87.5 -28.5q-37 0 -61.5 26.5t-24.5 67.5q0 96 123 304t254 389t276 368l-305 -262 q-123 -106 -282.5 -238.5t-239.5 -132.5q-49 0 -90 41t-41 90q0 63 94 201.5t211 283t203 248t106.5 133t20.5 45.5q0 6 -7.5 18.5t-17.5 12.5q-12 0 -195.5 -97t-317.5 -171t-169 -92.5t-53 -18.5q-12 0 -22.5 12.5t-10.5 26.5zM1093 1467q0 29 21 75q18 35 54 66t91 31 q98 -14 99 -86q-1 -33 -19 -76q-23 -43 -43 -65.5t-70 -22.5q-25 0 -53 8t-54 19.5t-26 50.5zM1485 1473q0 16 16 53q20 61 57 87t88 26t75 -25t24 -63q-1 -39 -19 -74q-10 -33 -37.5 -60.5t-64.5 -27.5q-25 0 -58.5 12t-57 25.5t-23.5 46.5z" />
<glyph unicode="&#x2c6;" horiz-adv-x="886" d="M150 856q0 16 11 42t154.5 87.5t193.5 77.5t87 16q45 0 70 -15.5t125 -111.5q25 -29 24 -47q0 -25 -33.5 -48t-72.5 -50q-29 43 -89.5 94t-103.5 51q-33 0 -166 -62.5t-170 -62.5q-31 0 -30 29z" />
<glyph unicode="&#x2dc;" horiz-adv-x="790" d="M231 956q0 35 22.5 55.5t68.5 20.5l243 -33q-55 47 -55 84q0 25 27 25q23 0 54.5 -22.5t70.5 -69.5q37 -47 36 -96q0 -84 -84 -84q-12 2 -18 2l-225 32q37 -43 37 -63q0 -16 -23 -16q-29 0 -69 24.5t-62.5 62t-22.5 78.5z" />
<glyph unicode="&#x2000;" horiz-adv-x="895" />
<glyph unicode="&#x2001;" horiz-adv-x="1790" />
<glyph unicode="&#x2002;" horiz-adv-x="895" />
<glyph unicode="&#x2003;" horiz-adv-x="1790" />
<glyph unicode="&#x2004;" horiz-adv-x="596" />
<glyph unicode="&#x2005;" horiz-adv-x="447" />
<glyph unicode="&#x2006;" horiz-adv-x="298" />
<glyph unicode="&#x2007;" horiz-adv-x="298" />
<glyph unicode="&#x2008;" horiz-adv-x="223" />
<glyph unicode="&#x2009;" horiz-adv-x="358" />
<glyph unicode="&#x200a;" horiz-adv-x="99" />
<glyph unicode="&#x2010;" horiz-adv-x="575" d="M25 504q0 35 54 81t95 46q53 0 139 -5t101 -5q14 8 33.5 15t35.5 7t40 -4t50.5 -10.5t26.5 -20.5q0 -10 -18.5 -28.5t-69.5 -49t-136 -47t-263 -16.5q-88 0 -88 37z" />
<glyph unicode="&#x2011;" horiz-adv-x="575" d="M25 504q0 35 54 81t95 46q53 0 139 -5t101 -5q14 8 33.5 15t35.5 7t40 -4t50.5 -10.5t26.5 -20.5q0 -10 -18.5 -28.5t-69.5 -49t-136 -47t-263 -16.5q-88 0 -88 37z" />
<glyph unicode="&#x2012;" horiz-adv-x="575" d="M25 504q0 35 54 81t95 46q53 0 139 -5t101 -5q14 8 33.5 15t35.5 7t40 -4t50.5 -10.5t26.5 -20.5q0 -10 -18.5 -28.5t-69.5 -49t-136 -47t-263 -16.5q-88 0 -88 37z" />
<glyph unicode="&#x2013;" horiz-adv-x="892" d="M68 508q0 80 43 103.5t118 23.5q135 0 250 -1t230 -11q43 23 69 22l82 -12q33 -5 33 -21q0 -14 -23.5 -35.5t-74 -50t-226.5 -44t-379 -15.5q-51 0 -86.5 9t-35.5 32z" />
<glyph unicode="&#x2014;" horiz-adv-x="1245" d="M23 498q0 33 66.5 87t111.5 54l223 -4q166 -4 354.5 -8t302.5 -4q55 23 70 22q47 0 82 -9.5t35 -25.5q0 -14 -52.5 -53t-96.5 -53.5t-217 -20.5t-402.5 -9t-341.5 -5q-94 0 -114.5 4t-20.5 25z" />
<glyph unicode="&#x2018;" horiz-adv-x="606" d="M289 1020q0 61 53 151.5t119.5 151.5t107.5 61l27 -2q-41 -55 -55.5 -76.5t-34.5 -62.5q76 -23 76 -74q0 -66 -60.5 -130t-124.5 -64q-109 0 -108 45z" />
<glyph unicode="&#x2019;" horiz-adv-x="606" d="M287 985q41 55 57 82t35 59q-78 20 -78 74q0 68 60.5 130.5t125.5 62.5q107 0 107 -43q0 -88 -96.5 -227.5t-184.5 -139.5z" />
<glyph unicode="&#x201a;" horiz-adv-x="614" d="M215 -121q41 55 57.5 82t34.5 59q-78 20 -78 74q0 68 60.5 130.5t126.5 62.5q106 0 106 -43q0 -88 -96 -227.5t-184 -139.5z" />
<glyph unicode="&#x201c;" horiz-adv-x="927" d="M233 1030q0 61 53.5 151.5t120 152t107.5 61.5l27 -2q-41 -55 -55.5 -77t-34.5 -63q76 -23 75 -73q0 -66 -60 -130.5t-124 -64.5q-109 0 -109 45zM567 1030q0 66 54.5 155t109.5 138q74 72 117 72l29 -2q-43 -59 -56.5 -78t-36.5 -62q76 -23 76 -73q0 -66 -60.5 -130.5 t-123.5 -64.5q-109 0 -109 45z" />
<glyph unicode="&#x201d;" horiz-adv-x="927" d="M236 995q41 55 57 82t35 60q-78 20 -78 73q0 68 60.5 130.5t125.5 62.5q107 0 107 -43q0 -88 -96.5 -227.5t-184.5 -139.5zM557 995q41 55 56.5 79t33.5 63q-76 20 -76 73q0 66 59.5 129.5t125.5 63.5q110 0 110 -43q0 -84 -98 -225.5t-184 -141.5z" />
<glyph unicode="&#x201e;" horiz-adv-x="927" d="M215 -121q41 55 57.5 82t34.5 59q-78 20 -78 74q0 68 60.5 130.5t126.5 62.5q106 0 106 -43q0 -88 -96 -227.5t-184 -139.5zM537 -121q41 55 56 79t34 62q-76 20 -76 74q0 66 59.5 129.5t124.5 63.5q111 0 111 -43q0 -84 -98.5 -225.5t-184.5 -141.5z" />
<glyph unicode="&#x2022;" horiz-adv-x="1228" d="M406 586q0 82 57 139t139 57t141.5 -57t59.5 -139t-57.5 -139.5t-143.5 -57.5q-82 0 -139 57.5t-57 139.5z" />
<glyph unicode="&#x2026;" horiz-adv-x="2048" d="M174 66q0 76 61.5 153.5t155.5 77.5q20 0 45 -6q59 -14 60 -72q0 -49 -33 -107.5t-76 -111.5q-23 -23 -74 -23q-68 0 -103.5 26t-35.5 63zM852 66q0 74 61.5 152.5t153.5 78.5q20 0 45 -6q59 -14 59 -74q0 -45 -32.5 -106.5t-64.5 -97.5t-83 -36q-68 0 -103.5 26 t-35.5 63zM1546 66q0 72 62.5 151.5t152.5 79.5q22 0 45 -6q59 -14 60 -74q0 -47 -33 -105.5t-76 -111.5q-23 -23 -74 -23q-68 0 -102.5 28t-34.5 61z" />
<glyph unicode="&#x202f;" horiz-adv-x="358" />
<glyph unicode="&#x2039;" horiz-adv-x="436" d="M63 500q0 23 106.5 188.5t121.5 214.5q33 -35 56.5 -84t23.5 -78q8 -31 -67 -125t-79 -116q-6 -41 99.5 -82t105.5 -99q0 -18 -10 -45q-20 -49 -72 -49q-78 0 -181.5 103.5t-103.5 171.5z" />
<glyph unicode="&#x203a;" horiz-adv-x="436" d="M141 819l4 35q12 63 64 64q72 0 181.5 -103.5t109.5 -152.5q0 -70 -110.5 -241t-115.5 -179q-35 37 -50 72.5t-15 68.5q0 63 64.5 144t64.5 102q0 57 -98.5 90t-98.5 100z" />
<glyph unicode="&#x205f;" horiz-adv-x="447" />
<glyph unicode="&#x2122;" horiz-adv-x="1677" d="M145 1241v162h580v-162h-193v-516h-194v516h-193zM774 725v678h291l113 -322l112 322h275v-678h-195v469l-145 -469h-97l-161 469v-469h-193z" />
<glyph unicode="&#x25fc;" horiz-adv-x="788" d="M0 0v788h788v-788h-788z" />
</font>
</defs>
</svg>
